1 сезон

3 сезон

iTunes

1

iTunes

DUB Netflix

iTunes

13

1 сезон

RePack

30

Deluxe

pack

Легкие деньги

ВАЖНО

ИГРА 18+

pack

RePack

MK11

RePack

jed

RePack

fifa19

RePack

RDR2

RePack

NEED FOR SPEED™ PAYBACK

4 сезон

9 сезон

Бесстыжие 9 сезон

Все сериалы

все сериалы на PB.wtf

RePack

FAR CRY 5

Anonymous, добрый вечер, мы не успеваем до 1 числа собрать деньги на оплату серверов, помогите нам пожалуйста в это трудное время. В качестве благодарности мы отключим Вам всю рекламу на сайте (укажите свой ник в строку Ваше имя)!

×
  
Magnet ссылка

Против природы / Against the Wild (Ричард Боддингтон / Richard Boddington) [2014, Канада, приключения, семейный, WEB-DLRip,Любительский (одноголосый) [R.A.I.M] piratbit.pw

Против природы через торрент piratbit.pw

Размер: 1.37 GB | Добавлен: 7 лет 1 мес. назад | Торрент скачан:110 раз
Скачать  

17-05-2014 21:41 Против природы Скачать торрент  


Против природы / Against the Wild


Год выпуска: 2014
Страна:Канада
Жанр:приключения, семейный
Продолжительность:01:32:26
Перевод:Любительский (одноголосый) [R.A.I.M]
Субтитры: Нет
Режиссер:Ричард Боддингтон / Richard Boddington

  • В ролях:

    С.Дж. Адамс (Zach Wade), Грег Кэмпбелл (Bill Peters), Сара Дикинс (Sgt McCoy), Рейнбоу Фрэнкс (Charlie Foster), Дженнифер Гибсон (Sheila), Наташа Хенстридж (Susan Wade), Эрин Питт (Hannah Wade), Шон Сторер (Eric), Джон Тенч (Capt Walker), Тед Уиттэлл (Robert Wade), Chuck Willcocks (Jimmy)

  • Описание:
    Брат с сестрой и их преданный пес после авиационной катастрофы оказываются в той части Аляски, где царят первозданная красота и природная жестокость. Им придется объединить все свои навыки, забыть прежние обиды и научиться доверять друг другу, чтобы вырваться из этого плена.

  • Мировая премьера:11 марта 2014


      Качество: WEB-DLRip
      Формат: AVI
      Видео кодек: XviD
      Аудио кодек:AC3
      Видео: XviD, 720x400 (16:9), 1919 kbps, 23,976 fps, 0,278 bpp
      Аудио: AC3 / 2.0 / 48 kHz / 192 kbps / 16 bit


    Код:

    General
    Complete name                            : D:\Торенты\Against.the.Wild.L1.2014.WEBDLRip..avi
    Format                                   : AVI
    Format/Info                              : Audio Video Interleave
    File size                                : 1.37 GiB
    Duration                                 : 1h 32mn
    Overall bit rate                         : 2 121 Kbps
    Writing application                      : VirtualDubMod 1.5.10.3 | www.virtualdub-fr.org || (build 2550/release)
    Writing library                          : VirtualDubMod build 2550/release

    Video
    ID                                       : 0
    Format                                   : MPEG-4 Visual
    Format profile                           : Advanced Simple@L5
    Format settings, BVOP                    : 2
    Format settings, QPel                    : No
    Format settings, GMC                     : No warppoints
    Format settings, Matrix                  : Custom
    Codec ID                                 : XVID
    Codec ID/Hint                            : XviD
    Duration                                 : 1h 32mn
    Bit rate                                 : 1 919 Kbps
    Width                                    : 720 pixels
    Height                                   : 400 pixels
    Display aspect ratio                     : 16:9
    Frame rate                               : 23.976 fps
    Color space                              : YUV
    Chroma subsampling                       : 4:2:0
    Bit depth                                : 8 bits
    Scan type                                : Progressive
    Compression mode                         : Lossy
    Bits/(Pixel*Frame)                       : 0.278
    Stream size                              : 1.24 GiB (90%)
    Writing library                          : XviD 1.2.1 (UTC 2008-12-04)

    Audio
    ID                                       : 1
    Format                                   : AC-3
    Format/Info                              : Audio Coding 3
    Mode extension                           : CM (complete main)
    Codec ID                                 : 2000
    Duration                                 : 1h 32mn
    Bit rate mode                            : Constant
    Bit rate                                 : 192 Kbps
    Channel(s)                               : 2 channels
    Channel positions                        : Front: L R
    Sampling rate                            : 48.0 KHz
    Bit depth                                : 16 bits
    Compression mode                         : Lossy
    Stream size                              : 127 MiB (9%)
    Alignment                                : Split accross interleaves
    Interleave, duration                     : 42 ms (1.00 video frame)
    Interleave, preload duration             : 500 ms

    Скриншоты:

    Каталог Новинок (Фильмы-трейлеры, Игры, Сериалы, Мультфильмы)

    © Оформление by Raven
    piratbit.pw



  • Скачать Против природы через торрент https://pic1.kartinco.top/images/61/stazu.jpg Скачать фильм Против природы через торрент бесплантно в хорошем качестве Описание:Брат с сестрой и их преданный пес после авиационной катастрофы оказываются в той части Аляски, где царят первозданная красота и ... 9.7 10 3
    Торрент: Зарегистрирован [2014-05-17 21:41] · скачан: 110 раз
    Статус: T временная
    Размер: 1.37 GB
    Как cкачать? Как скачать Против природы через торрент | UTorrent

    % Раздел Тема Автор DL S | L
    T Фильмы 2014 (Звук TS, Cam, VO, DVO) [ 1.45 GB ] Против природы / Against the Wild [2014 HDRip Любительский одноголосый] coc900 Скачать
    1 | 0

    28-11-2019 20:33  

    Отключить всю рекламу на сайте

      Дорогой пользователь! Огромная просьба, поблагодарите релизера, оцените раздачу и оставьте свои комментарий, если Вы скачали Против природы через торрент бесплатно! Внесите свою лепту в развитие PiratBit!
      Комментировать посты могут только пользователи прошедшие не сложную регистрацию
      Показать сообщения:    

      Против природы через торрент
      Скачать бесплатно Против природы
      Против природы скачать торрент
      Против природы смотреть онлайн
      Cкачать фильм Против природы бесплатно
      Против природы скачать торрент в хорошем качестве
      Против природы смотреть онлайн бесплатно в хорошем качестве


      Вы не можете начинать темы
      Вы не можете отвечать на сообщения
      Вы не можете редактировать свои сообщения
      Вы не можете удалять свои сообщения
      Вы не можете голосовать в опросах
      Вы не можете прикреплять файлы к сообщениям
      Вы можете скачивать файлы