Ссылка на приватное зеркало всего за 1$. Внимание количество ограничено!!!

iTunes

iTunes

iTunes

1

iTunes

iTunes

iTunes

iTunes

iTunes

30
pack

$ от Little Big

ВАЖНО

!!Акция!!

Alien_RageХит недели

RePack

Resident Evil 21

ИГРА 18+

pack

RePack

jed

!!Акция!!

Alien_Rage

RePack

fifa19

RePack

Assassins Creed: Odyssey

RePack

NEED FOR SPEED™ PAYBACK

4 сезон

9 сезон

Бесстыжие 9 сезон

Все сериалы

все сериалы на PB.wtf

RePack

FAR CRY 5
  

Академия вампиров / Vampire Academy (Марк Уотерс / Mark Waters) [2014, США, ужасы, фэнтези, боевик, BDRip 1080p,MVO [BaibaKo] от R.G. HD-Films piratbit.pw

Академия вампиров через торрент piratbit.pw

Размер: 6.83 GB | Добавлен: 6 лет 2 мес. назад | Торрент скачан:442 раза
Скачать  

13-05-2014 16:31 Академия вампиров Скачать торрент  


Академия вампиров / Vampire Academy
«Blood is family. Blood is pain. And blood is death»

Год выпуска: 2014
Страна:США
Жанр:ужасы, фэнтези, боевик, комедия, детектив
Продолжительность:01:44:22
Перевод:Профессиональный (многоголосый, закадровый) [BaibaKo]
Субтитры: Нет
Режиссер:Марк Уотерс / Mark Waters

  • В ролях:

    Зои Дойч (Rose Hathaway), Люси Фрай (Lissa Dragomir), Данила Козловский (Dimitri Belikov), Доминик Шервуд (Christian Ozera), Сара Хайланд (Natalie), Гэбриел Бирн (Victor Dashkov), Сами Гэйл (Mia Rinaldi), Ольга Куриленко (Headmistress Kirova), Джоэли Ричардсон (Queen Tatiana), Камерон Монахэн (Mason), Эшли Чарльз (Jesse), Клер Фой (Ms. Karp)

  • Описание:
    Мало кому известно, что в Америке, в самом сердце Монтаны, имеется настоящая Академия, где вампиры обучаются высокому искусству магии. И почти никто не знает, что в мире идут кровавые вампирские войны и расе мороев противостоит жестокое племя стригоев, вампиров, переступивших черту закона и не гнушающихся убийством. Даже стены Академии, святая святых науки, не слишком надежная защита от происков темных сил. Юная моройская принцесса Лисса и Роза, ее подруга и верный страж, однажды убеждаются в этом, оказавшись в эпицентре грозных событий.

  • Мировая премьера:7 февраля 2014


      Качество: BDRip 1080p
      Формат: MKV
      Видео кодек: AVC
      Аудио кодек:AC3
      Видео: AVC, 1920x800 (2.40:1), 8982 kbps, 23,976 fps, 0,244 bpp
      Аудио: русский / AC3 / 5.1 / 48 kHz / 384 kbps / 16 bit ||


    Код:

    General
    Unique ID                                : 197142604406826266883556545329702726320 (0x945048D5EB81C3B9A79DCF2770816AB0)
    Complete name                            : D:\Торенты\Vampire.Academy.1080p Piratbit.net_R.G. HD-Films .mkv
    Format                                   : Matroska
    Format version                           : Version 4 / Version 2
    File size                                : 6.83 GiB
    Duration                                 : 1h 44mn
    Overall bit rate                         : 9 366 Kbps
    Movie name                               : Release for Piratbit.net_R.G. HD-Films
    Encoded date                             : UTC 2014-05-13 15:13:58
    Writing application                      : mkvmerge v6.9.1 ('Blue Panther') 64bit built on Apr 18 2014 18:23:38
    Writing library                          : libebml v1.3.0 + libmatroska v1.4.1

    Video
    ID                                       : 1
    Format                                   : AVC
    Format/Info                              : Advanced Video Codec
    Format profile                           : High@L4.1
    Format settings, CABAC                   : Yes
    Format settings, ReFrames                : 5 frames
    Codec ID                                 : V_MPEG4/ISO/AVC
    Duration                                 : 1h 44mn
    Bit rate                                 : 8 982 Kbps
    Width                                    : 1 920 pixels
    Height                                   : 800 pixels
    Display aspect ratio                     : 2.40:1
    Frame rate                               : 23.976 fps
    Color space                              : YUV
    Chroma subsampling                       : 4:2:0
    Bit depth                                : 8 bits
    Scan type                                : Progressive
    Bits/(Pixel*Frame)                       : 0.244
    Stream size                              : 6.41 GiB (94%)
    Title                                    : Release for Piratbit.net_R.G. HD-Films
    Writing library                          : x264 core 142 r2431 ac76440
    Encoding settings                        : cabac=1 / ref=5 / deblock=1:0:0 / analyse=0x3:0x133 / me=umh / subme=7 / psy=1 / psy_rd=1.00:0.00 / mixed_ref=1 / me_range=16 / chroma_me=1 / trellis=1 / 8x8dct=1 / cqm=0 / deadzone=21,11 / fast_pskip=0 / chroma_qp_offset=-2 / threads=12 / lookahead_threads=2 / sliced_threads=0 / nr=0 / decimate=1 / interlaced=0 / bluray_compat=0 / constrained_intra=0 / bframes=3 / b_pyramid=2 / b_adapt=1 / b_bias=0 / direct=1 / weightb=1 / open_gop=0 / weightp=2 / keyint=250 / keyint_min=23 / scenecut=40 / intra_refresh=0 / rc_lookahead=40 / rc=2pass / mbtree=1 / bitrate=8982 / ratetol=1.0 / qcomp=0.60 / qpmin=0 / qpmax=69 / qpstep=4 / cplxblur=20.0 / qblur=0.5 / ip_ratio=1.40 / aq=1:1.00
    Language                                 : English
    Default                                  : No
    Forced                                   : No

    Audio
    ID                                       : 2
    Format                                   : AC-3
    Format/Info                              : Audio Coding 3
    Mode extension                           : CM (complete main)
    Codec ID                                 : A_AC3
    Duration                                 : 1h 44mn
    Bit rate mode                            : Constant
    Bit rate                                 : 384 Kbps
    Channel(s)                               : 6 channels
    Channel positions                        : Front: L C R, Side: L R, LFE
    Sampling rate                            : 48.0 KHz
    Bit depth                                : 16 bits
    Compression mode                         : Lossy
    Stream size                              : 287 MiB (4%)
    Language                                 : Russian
    Default                                  : Yes
    Forced                                   : No

    Menu
    00:00:00.000                             : en:00:00:00.000
    00:06:11.913                             : en:00:06:11.913
    00:13:48.661                             : en:00:13:48.661
    00:19:34.590                             : en:00:19:34.590
    00:26:25.834                             : en:00:26:25.834
    00:33:07.652                             : en:00:33:07.652
    00:39:47.760                             : en:00:39:47.760
    00:46:29.120                             : en:00:46:29.120
    00:51:45.853                             : en:00:51:45.853
    00:56:13.579                             : en:00:56:13.579
    01:01:42.324                             : en:01:01:42.324
    01:07:31.005                             : en:01:07:31.005
    01:13:32.533                             : en:01:13:32.533
    01:21:50.072                             : en:01:21:50.072
    01:30:11.781                             : en:01:30:11.781
    01:36:05.677                             : en:01:36:05.677

    Скриншоты:

    Каталог Новинок (Фильмы-трейлеры, Игры, Сериалы, Мультфильмы)

    Релиз подготовлен специально для Piratbit.net. Синхронизация звука и видео by Raven
    piratbit.pw



  • Скачать Академия вампиров через торрент http://pic.kartinco.top/images/6/stazu.jpg Скачать фильм Академия вампиров через торрент бесплантно в хорошем качестве Описание:Мало кому известно, что в Америке, в самом сердце Монтаны, имеется настоящая Академия, где вампиры обучаются высокому искусству ... 9.2 10 15
    Info! Золотая раздача, скачанное не засчитывается.
    Торрент: Зарегистрирован [2014-05-13 16:31] · скачан: 442 раз
    Статус: √ проверено
    Размер: 6.83 GB
    Как cкачать? Как скачать Академия вампиров через торрент | qTorrent

    28-11-2019 20:33  

    Отключить всю рекламу на сайте

    20-05-2014 07:32 Академия вампиров Скачать торрент  

    как уже надоели эти конченые вампиры.piratbit.pw



      Дорогой пользователь! Огромная просьба, поблагодарите релизера, оцените раздачу и оставьте свои комментарий, если Вы скачали Академия вампиров через торрент бесплатно! Внесите свою лепту в развитие PiratBit!
      Комментировать посты могут только пользователи прошедшие не сложную регистрацию
      Показать сообщения:    

      Академия вампиров через торрент
      Скачать бесплатно Академия вампиров
      Академия вампиров скачать торрент
      Академия вампиров смотреть онлайн
      Cкачать фильм Академия вампиров бесплатно
      Академия вампиров скачать торрент в хорошем качестве
      Академия вампиров смотреть онлайн бесплатно в хорошем качестве


      Вы не можете начинать темы
      Вы не можете отвечать на сообщения
      Вы не можете редактировать свои сообщения
      Вы не можете удалять свои сообщения
      Вы не можете голосовать в опросах
      Вы не можете прикреплять файлы к сообщениям
      Вы можете скачивать файлы