1 сезон

3 сезон

iTunes

1

iTunes

DUB Netflix

iTunes

13

1 сезон

RePack

30

Deluxe

pack

Легкие деньги

ВАЖНО

ИГРА 18+

pack

RePack

MK11

RePack

jed

RePack

fifa19

RePack

RDR2

RePack

NEED FOR SPEED™ PAYBACK

4 сезон

9 сезон

Бесстыжие 9 сезон

Все сериалы

все сериалы на PB.wtf

RePack

FAR CRY 5

Anonymous, доброй ночи, мы не успеваем до 1 числа собрать деньги на оплату серверов, помогите нам пожалуйста в это трудное время. В качестве благодарности мы отключим Вам всю рекламу на сайте (укажите свой ник в строку Ваше имя)!

×
  
Magnet ссылка

Мисс Поттер / Miss Potter (Крис Нунен / Chris Noonan) [2006, Великобритания, США, Остров Мэн, драма, биография, BDRip,Профессиональный (полное дублирование) piratbit.pw

Мисс Поттер через торрент piratbit.pw

Размер: 1.45 GB | Добавлен: 7 лет 1 мес. назад | Торрент скачан:61 раз
Скачать  

13-05-2014 16:22 Мисс Поттер Скачать торрент  

Мисс Поттер / Miss Potter
Год выпуска: 2006
Страна: Великобритания, США, Остров Мэн
Жанр: драма, биография
Продолжительность: 01:28:49
Перевод: Профессиональный (полное дублирование)
Субтитры: Нет

Режиссер: Крис Нунен / Chris Noonan
В ролях: Рене Зеллвегер (Beatrix Potter), Юэн МакГрегор (Norman Warne), Эмили Уотсон (Millie Warne), Барбара Флинн (Helen Potter), Билл Патерсон (Rupert Potter), Мэтилок Гиббс (Miss Wiggin), Ллойд Оуэн (William Heelis), Энтон Лессер (Harold Warne), Дэвид Бамбер (Fruing Warne), Филлида Ло (Mrs. Warne), Патриция Керриган (Fiona), Люси Бойнтон (Young Beatrix)

Описание: Основанный на реальных событиях фильм рассказывает о жизни английской детской писательницы конца 19-го века Беатрикс Поттер. В эпоху, когда большинство молодых женщин ее сословия мечтали только о выгодном замужестве, Беатрикс пошла наперекор обычаям и традициям викторианской Англии, проявив свободомыслие, отнюдь не характерное для женщин своего времени...

kinopoisk.ru: 7.401 (4747)
imdb.com: 7.00 (20 227)
MPAA: PG - Рекомендуется присутствие родителей

Качество: BDRip
Формат: AVI
Видео кодек: XviD
Аудио кодек: AC3
Видео: XviD, 720x304 (2.35:1), 1885 kbps, 25 fps, 0,345 bpp
Аудио: AC3 / 5.1 / 48 kHz / 448 kbps / 16 bit

Релиз от:
Автор рипа: kingsize87

General
Complete name : C:\закачки\Miss.Potter.2006.RUS.BDRip.XviD.AC3.-HQCLUB.avi
Format : AVI
Format/Info : Audio Video Interleave
File size : 1.45 GiB
Duration : 1h 28mn
Overall bit rate : 2 344 Kbps
Movie name : Мисс Поттер / Miss Potter (2006) BDRip
Director : kingsize87
Writing application : VirtualDubMod 1.5.10.2 (build 2542/release)
Copyright : HQCLUB
Comment : 13.04.2012

Video
ID : 0
Format : MPEG-4 Visual
Format profile : Advanced Simple@L5
Format settings, BVOP : 1
Format settings, QPel : No
Format settings, GMC : No warppoints
Format settings, Matrix : Custom
Codec ID : XVID
Codec ID/Hint : XviD
Duration : 1h 28mn
Bit rate : 1 886 Kbps
Width : 720 pixels
Height : 304 pixels
Display aspect ratio : 2.35:1
Frame rate : 25.000 fps
Color space : YUV
Chroma subsampling : 4:2:0
Bit depth : 8 bits
Scan type : Progressive
Compression mode : Lossy
Bits/(Pixel*Frame) : 0.345
Stream size : 1.17 GiB (80%)
Writing library : XviD 72

Audio
ID : 1
Format : AC-3
Format/Info : Audio Coding 3
Mode extension : CM (complete main)
Codec ID : 2000
Duration : 1h 28mn
Bit rate mode : Constant
Bit rate : 448 Kbps
Channel(s) : 6 channels
Channel positions : Front: L C R, Side: L R, LFE
Sampling rate : 48.0 KHz
Bit depth : 16 bits
Compression mode : Lossy
Stream size : 285 MiB (19%)
Alignment : Split accross interleaves
Interleave, duration : 40 ms (1.00 video frame)
Interleave, preload duration : 500 ms

piratbit.pw



Скачать Мисс Поттер через торрент http://bilder.filmstarts.de/r_640_600/b_1_d6d6d6/medias/nmedia/18/76/12/95/19279040.jpg Скачать фильм Мисс Поттер через торрент бесплантно в хорошем качестве Описание: Основанный на реальных событиях фильм рассказывает о жизни английской детской писательницы конца 19-го века Беатрикс Поттер. В ... 8.3 10 3
Торрент: Зарегистрирован [2014-05-13 16:22] · скачан: 61 раз
Статус: √ проверено
Размер: 1.45 GB
Как cкачать? Как скачать Мисс Поттер через торрент | UTorrent

% Раздел Тема Автор DL S | L
Фильмы до 2000 г. [ 1.77 GB ] Мисс Поттер / Miss Potter [2006 биография BDRip-AVC] DUB msltel Скачать
1 | 0
Фильмы [HD 720p, 1080p] (Хороший звук DUB, MVO) [ 8.12 GB ] Мисс Поттер / Miss Potter [2006 биография BDRip 1080p] DUB msltel Скачать
1 | 0
Фильмы [HD 720p, 1080p] (Хороший звук DUB, MVO) [ 3.18 GB ] Мисс Поттер / Miss Potter [2006 биография BDRip 720p] DUB msltel Скачать
1 | 0


Последний раз редактировалось: KEYS (2014-05-13 16:59), всего редактировалось 2 раз(а)

28-11-2019 20:33  

Отключить всю рекламу на сайте

    Дорогой пользователь! Огромная просьба, поблагодарите релизера, оцените раздачу и оставьте свои комментарий, если Вы скачали Мисс Поттер через торрент бесплатно! Внесите свою лепту в развитие PiratBit!
    Комментировать посты могут только пользователи прошедшие не сложную регистрацию
    Показать сообщения:    

    Мисс Поттер через торрент
    Скачать бесплатно Мисс Поттер
    Мисс Поттер скачать торрент
    Мисс Поттер смотреть онлайн
    Cкачать фильм Мисс Поттер бесплатно
    Мисс Поттер скачать торрент в хорошем качестве
    Мисс Поттер смотреть онлайн бесплатно в хорошем качестве


    Вы не можете начинать темы
    Вы не можете отвечать на сообщения
    Вы не можете редактировать свои сообщения
    Вы не можете удалять свои сообщения
    Вы не можете голосовать в опросах
    Вы не можете прикреплять файлы к сообщениям
    Вы можете скачивать файлы