Ссылка на приватное зеркало всего за 1$. Внимание количество ограничено!!!

OK

1+1

iTunes

мы

OK

1

WEB-DLRip

Джокер

Пифагор

Ведьмак / The Witcher сериал

Лицензия

ПШазам

ОК

Оно 2

iTunes

30
pack

Вам бонус

ВАЖНО

!!Акция!!

Alien_RageХит недели

RePack

Resident Evil 21

ИГРА 18+

pack

RePack

jed

!!Акция!!

Alien_Rage

RePack

fifa19

RePack

Assassins Creed: Odyssey

RePack

NEED FOR SPEED™ PAYBACK

4 сезон

9 сезон

Бесстыжие 9 сезон

Все сериалы

все сериалы на PB.wtf

RePack

FAR CRY 5
  

В спорте только девушки (Евгений Невский) [2014 г., Комедия, приключения, спорт, BDRip-AVC] [Лицензия] piratbit.pw

В спорте только девушки через торрент piratbit.pw

Размер: 1.46 GB | Добавлен: 5 лет 8 мес. назад | Торрент скачан:1118 раз
Скачать  

09-05-2014 02:27 В спорте только девушки Скачать торрент  

В спорте только девушки
Год выпуска: 2014
Страна: Россия / Среда Фетисов Филмс
Жанр: Комедия, приключения, спорт
Продолжительность: 01:33:40
Субтитры: Нет

Режиссер: Евгений Невский



В ролях: Лянка Грыу, Александр Головин, Екатерина Вилкова, Илья Глинников, Александр Ведменский, Михаил Трухин, Алена Чехова, Алексей Золотовицкий, Дмитрий Мухамадеев, Татьяна Рыбинец

Описание: Женская сборная по сноуборду ведет подготовку к Играм и направляется в Сочи на тестовые соревнования. Переодевшись в девушек, к ним присоединяются три скрывающихся от погони сноубордиста-фрирайдера. По приезду в Сочи, эти герои фильма «В спорте только девушки» заводят знакомство со спортсменками-американками.

Качество: BDRip-AVC
Формат: MKV
Видео кодек: H.264
Аудио кодек: AC3
Видео: 1032x432 (2,40:1), 24,000 fps, 1848 Кbps, 0.173 bit/pixel
Аудио: 48 kHz, AC3 Dolby Digital, 3/2 (L,C,R,l,r) + LFE ch, 384.00 kbps

Релиз группы:
Автор рипа: potroks

Общее
Уникальный идентификатор : 177986490656463999582879452393513743597 (0x85E6F3822E91A0C5BC372BAC56F8F4ED)
Полное имя : V.Sporte.Tol'ko.Devushki.2014.RUS.BDRip.x264.-HELLYWOOD.mkv
Формат : Matroska
Версия формата : Version 4 / Version 2
Размер файла : 1,46 Гбайт
Продолжительность : 1 ч. 33 м.
Общий поток : 2234 Кбит/сек
Название фильма : HELLYWOOD - rip by potroks
Дата кодирования : UTC 2014-05-09 01:56:06
Программа кодирования : mkvmerge v5.9.0 ('On The Loose') built on Dec 15 2012 16:39:58
Библиотека кодирования : libebml v1.3.0 + libmatroska v1.4.0

Видео
Идентификатор : 1
Формат : AVC
Формат/Информация : Advanced Video Codec
Профиль формата : High@L4.1
Параметр CABAC формата : Да
Параметр ReFrames формата : 10 кадров
Идентификатор кодека : V_MPEG4/ISO/AVC
Продолжительность : 1 ч. 33 м.
Битрейт : 1848 Кбит/сек
Ширина : 1032 пикселя
Высота : 432 пикселя
Соотношение сторон : 2,40:1
Режим частоты кадров : Постоянный
Частота кадров : 24,000 кадра/сек
Цветовое пространство : YUV
Субдискретизация насыщенности : 4:2:0
Битовая глубина : 8 бит
Тип развёртки : Прогрессивная
Бит/(Пиксели*Кадры) : 0.173
Размер потока : 1,18 Гбайт (81%)
Заголовок : В спорте только девушки
Библиотека кодирования : x264 core 130 r2273 b3065e6
Настройки программы : cabac=1 / ref=10 / deblock=1:-2:-2 / analyse=0x3:0x133 / me=umh / subme=11 / psy=1 / psy_rd=0.98:0.00 / mixed_ref=1 / me_range=32 / chroma_me=1 / trellis=2 / 8x8dct=1 / cqm=0 / deadzone=21,11 / fast_pskip=0 / chroma_qp_offset=-2 / threads=9 / lookahead_threads=6 / sliced_threads=0 / nr=0 / decimate=0 / interlaced=0 / bluray_compat=0 / constrained_intra=0 / bframes=11 / b_pyramid=2 / b_adapt=2 / b_bias=0 / direct=3 / weightb=1 / open_gop=0 / weightp=2 / keyint=250 / keyint_min=23 / scenecut=40 / intra_refresh=0 / rc_lookahead=60 / rc=2pass / mbtree=0 / bitrate=1848 / ratetol=1.0 / qcomp=0.70 / qpmin=0 / qpmax=69 / qpstep=4 / cplxblur=20.0 / qblur=0.5 / vbv_maxrate=20000 / vbv_bufsize=20000 / nal_hrd=none / ip_ratio=1.35 / pb_ratio=1.25 / aq=1:0.80
Язык : Russian
Default : Да
Forced : Нет

Аудио
Идентификатор : 2
Формат : AC-3
Формат/Информация : Audio Coding 3
Расширение режима : CM (complete main)
Параметр Endianness формата : Big
Идентификатор кодека : A_AC3
Продолжительность : 1 ч. 33 м.
Вид битрейта : Постоянный
Битрейт : 384 Кбит/сек
Каналы : 6 каналов
Расположение каналов : Front: L C R, Side: L R, LFE
Частота : 48,0 КГц
Битовая глубина : 16 бит
Метод сжатия : С потерями
Размер потока : 257 Мбайт (17%)
Заголовок : DD 5.1 @ 384 kbps
Язык : Russian
Default : Да
Forced : Нет

Меню
00:00:00.000 : :Chapter 01
00:00:52.375 : :Chapter 02
00:09:51.791 : :Chapter 03
00:20:54.208 : :Chapter 04
00:31:18.458 : :Chapter 05
00:43:37.833 : :Chapter 06
00:55:56.583 : :Chapter 07
01:11:50.333 : :Chapter 08
01:21:12.541 : :Chapter 09

piratbit.pw



Скачать В спорте только девушки через торрент http://pic.kartinco.top/images/6/vof9h.jpg Скачать фильм В спорте только девушки через торрент бесплантно в хорошем качестве Описание: Женская сборная по сноуборду ведет подготовку к Играм и направляется в Сочи на тестовые соревнования. Переодевшись в девушек, к ... 9.8 10 30
Info! Золотая раздача, скачанное не засчитывается.
Торрент: Зарегистрирован [2014-05-09 02:27] · скачан: 1 118 раз
Статус: √ проверено
Размер: 1.46 GB
Как cкачать? Как скачать В спорте только девушки через торрент | qTorrent

% Раздел Тема Автор DL S | L
Наши фильмы (Blu-ray, BD-Remux, HDDVD) [ 19.23 GB ] В е только девушки [2014 Blu-ray Оригинальный] Бумер Скачать
1 | 0
Наши фильмы (DVD фильмы) [ 6.24 GB ] В е только девушки [2014 DVD9] R5 voovaz Скачать
1 | 0
Наши новые фильмы 2014 [ 1.37 GB ] В е только девушки [2014 НDRip] diletant Скачать
1 | 0
Наши фильмы (Blu-ray, BD-Remux, HDDVD) [ 15.16 GB ] В е только девушки [2014 Россия BDRemux] Ворон Скачать
1 | 0
Наши фильмы (HD, WEB-DL 720p, 1080p) [ 4.37 GB ] В е только девушки [2014 BDRip 720p] [] potroks Скачать
1 | 0
T Наши фильмы (HD, WEB-DL 720p, 1080p) [ 8.05 GB ] В е только девушки [2014 Россия BDRip 1080p] Ворон Скачать
1 | 0

28-11-2019 20:33  

Отключить всю рекламу на сайте

    Дорогой пользователь! Огромная просьба, поблагодарите релизера, оцените раздачу и оставьте свои комментарий, если Вы скачали В спорте только девушки через торрент бесплатно! Внесите свою лепту в развитие PiratBit!
    Комментировать посты могут только пользователи прошедшие не сложную регистрацию
    Показать сообщения:    

    В спорте только девушки через торрент
    Скачать бесплатно В спорте только девушки
    В спорте только девушки скачать торрент
    В спорте только девушки смотреть онлайн
    Cкачать фильм В спорте только девушки бесплатно
    В спорте только девушки скачать торрент в хорошем качестве
    В спорте только девушки смотреть онлайн бесплатно в хорошем качестве


    Вы не можете начинать темы
    Вы не можете отвечать на сообщения
    Вы не можете редактировать свои сообщения
    Вы не можете удалять свои сообщения
    Вы не можете голосовать в опросах
    Вы не можете прикреплять файлы к сообщениям
    Вы можете скачивать файлы