Ссылка на приватное зеркало нашего сайта всего за 1$. Внимание количество ограничено!!!

2 сезон

iTunes

1 сезон

1

iTunes

iTunes

iTunes

1 сезон

RePack

30

ИГРА 18+

pack

ВАЖНО

!!Акция!!

Alien_RageХит недели

RePack

MK11
pack

Забери бонус

RePack

jed

!!Акция!!

Alien_Rage

RePack

fifa19

RePack

Assassins Creed: Odyssey

RePack

NEED FOR SPEED™ PAYBACK

4 сезон

9 сезон

Бесстыжие 9 сезон

Все сериалы

все сериалы на PB.wtf

RePack

FAR CRY 5
  

Залётчики (Кирилл Кузин) [2014, Россия, комедия, WEB-DLRip] piratbit.pw

Залётчики через торрент piratbit.pw

Размер: 1.37 GB | Добавлен: 6 лет 5 мес. назад | Торрент скачан:1485 раз
Скачать  

09-05-2014 20:40 Залётчики Скачать торрент  


Залётчики
«Не важно, что ветер в голове, главное – попутный»

Год выпуска: 2014
Страна:Россия
Жанр:комедия
Продолжительность:01:19:10
Перевод:Не требуется
Субтитры: Нет
Режиссер:Кирилл Кузин

  • В ролях:

    Илья Глинников (Леха), Вано Тугуши (Вано), Екатерина Кузнецова (Бритни), Гоша Куценко (Николай Александрович), Вадим Галыгин (режиссер), Виктор Вержбицкий (Михаил Христафорович), Алексей Горбунов (главнокомандующий ВВС), Юрий Цурило (генерал Кочерыга), Александр Веремюк (Жора), Карел Добры (генерал ВВС США), Алексей Троценко (офицер НАТО), Давид Роинишвили (отец Вано)

  • Описание:
    Комедия о том, как два незадачливых героя, один из которых мечтал стать летчиком, а другой актером, случайно получают шанс исполнить обе мечты разом на съемочной площадке нового фильма. Однако в первой же сцене они умудряются разбить вертолет спонсора, что сулит им массу проблем. Чтобы возместить ущерб приятели вынуждены пуститься во все тяжкие - попытаться ограбить олигарха, заработать натурой и даже попробовать угнать вертолет с американской авиабазы.

  • Мировая премьера:20 марта 2014


      Качество: WEB-DLRip
      Формат: AVI
      Видео кодек: XviD
      Аудио кодек:AC3
      Видео: XviD, 720x400 (16:9), 2077 kbps, 25 fps, 0,289 bpp
      Аудио: AC3 / 5.1 / 48 kHz / 384 kbps / 16 bit


    Код:

    General
    Complete name                            : D:\Торенты\!Zaletchiky.2014.O.WEB-DLRip.1400Mb.avi
    Format                                   : AVI
    Format/Info                              : Audio Video Interleave
    File size                                : 1.37 GiB
    Duration                                 : 1h 19mn
    Overall bit rate                         : 2 472 Kbps
    Writing application                      : VirtualDubMod 1.5.10.2 (build 2540/release)
    Writing library                          : VirtualDubMod build 2540/release

    Video
    ID                                       : 0
    Format                                   : MPEG-4 Visual
    Format profile                           : Advanced Simple@L5
    Format settings, BVOP                    : 2
    Format settings, QPel                    : No
    Format settings, GMC                     : No warppoints
    Format settings, Matrix                  : Custom
    Codec ID                                 : XVID
    Codec ID/Hint                            : XviD
    Duration                                 : 1h 19mn
    Bit rate                                 : 2 078 Kbps
    Width                                    : 720 pixels
    Height                                   : 400 pixels
    Display aspect ratio                     : 16:9
    Frame rate                               : 25.000 fps
    Color space                              : YUV
    Chroma subsampling                       : 4:2:0
    Bit depth                                : 8 bits
    Scan type                                : Progressive
    Compression mode                         : Lossy
    Bits/(Pixel*Frame)                       : 0.289
    Stream size                              : 1.15 GiB (84%)
    Writing library                          : XviD 1.2.1 (UTC 2008-12-04)

    Audio
    ID                                       : 1
    Format                                   : AC-3
    Format/Info                              : Audio Coding 3
    Mode extension                           : CM (complete main)
    Codec ID                                 : 2000
    Duration                                 : 1h 19mn
    Bit rate mode                            : Constant
    Bit rate                                 : 384 Kbps
    Channel(s)                               : 6 channels
    Channel positions                        : Front: L C R, Side: L R, LFE
    Sampling rate                            : 48.0 KHz
    Bit depth                                : 16 bits
    Compression mode                         : Lossy
    Stream size                              : 217 MiB (16%)
    Alignment                                : Split accross interleaves
    Interleave, duration                     : 40 ms (1.00 video frame)
    Interleave, preload duration             : 500 ms

    Скриншоты:

    Каталог Новинок (Фильмы-трейлеры, Игры, Сериалы, Мультфильмы)

    © Оформление by Raven
    piratbit.pw



  • Скачать Залётчики через торрент http://pic.kartinco.top/images/6/stazu.jpg Скачать фильм Залётчики через торрент бесплантно в хорошем качестве Описание:Комедия о том, как два незадачливых героя, один из которых мечтал стать летчиком, а другой актером, случайно получают шанс ... 9 10 43
    Торрент: Зарегистрирован [2014-05-09 20:40] · скачан: 1 485 раз
    Статус: √ проверено
    Размер: 1.37 GB
    Как cкачать? Как скачать Залётчики через торрент | qTorrent

    28-11-2019 20:33  

    Отключить всю рекламу на сайте

    10-05-2014 04:00 Залётчики Скачать торрент  

    ТАКОЕ гофно слов нетpiratbit.pw



    10-05-2014 16:46 Залётчики Скачать торрент  

    ТАКОЕ гофно слов нет
    Спасибо качать не буду:)))piratbit.pw



    22-05-2014 17:02 Залётчики Скачать торрент  

    я готов здохнут от этого киноpiratbit.pw



      Дорогой пользователь! Огромная просьба, поблагодарите релизера, оцените раздачу и оставьте свои комментарий, если Вы скачали Залётчики через торрент бесплатно! Внесите свою лепту в развитие PiratBit!
      Комментировать посты могут только пользователи прошедшие не сложную регистрацию
      Показать сообщения:    

      Залётчики через торрент
      Скачать бесплатно Залётчики
      Залётчики скачать торрент
      Залётчики смотреть онлайн
      Cкачать фильм Залётчики бесплатно
      Залётчики скачать торрент в хорошем качестве
      Залётчики смотреть онлайн бесплатно в хорошем качестве


      Вы не можете начинать темы
      Вы не можете отвечать на сообщения
      Вы не можете редактировать свои сообщения
      Вы не можете удалять свои сообщения
      Вы не можете голосовать в опросах
      Вы не можете прикреплять файлы к сообщениям
      Вы можете скачивать файлы