Ссылка на приватное зеркало нашего сайта всего за 1$. Внимание количество ограничено!!!

2 сезон

iTunes

1 сезон

1

iTunes

iTunes

iTunes

1 сезон

RePack

30

ИГРА 18+

pack

ВАЖНО

!!Акция!!

Alien_RageХит недели

RePack

MK11
pack

Забери бонус

RePack

jed

!!Акция!!

Alien_Rage

RePack

fifa19

RePack

Assassins Creed: Odyssey

RePack

NEED FOR SPEED™ PAYBACK

4 сезон

9 сезон

Бесстыжие 9 сезон

Все сериалы

все сериалы на PB.wtf

RePack

FAR CRY 5
  

С 8 марта, мужчины! (Артем Аксененко) [2014, Россия, Беларусь, мелодрама, комедия, WEB-DLRip] piratbit.pw

С 8 марта, мужчины! через торрент piratbit.pw

Размер: 1.37 GB | Добавлен: 6 лет 5 мес. назад | Торрент скачан:2355 раз
Скачать  

09-05-2014 20:44 С 8 марта, мужчины! Скачать торрент  


С 8 марта, мужчины!
«Она знает, о чём мечтают мужчины»

Год выпуска: 2014
Страна:Россия, Беларусь
Жанр:мелодрама, комедия
Продолжительность:01:38:33
Перевод:Не требуется
Субтитры: Нет
Режиссер:Артем Аксененко

  • В ролях:

    Мария Берсенева (Анна Беркутова), Максим Виторган (Лев Касперский), Светлана Иванова (Виолетта), Михаил Башкатов (друг Константина, молодой ученый), Вера Алентова (Галина Семеновна), Константин Лавиш (Константин Орлов), Ксения Бородина (сотрудница научного центра «Сколково»), Владислав Лисовец (стилист Анны), Стивен Нельсон (друг Константина, молодой ученый), Алексей Климушкин (сотрудник научного центра «Сколково»), Марчин Руй (Итон, жених Анны), Владимир Тишко (сотрудник научного центра «Сколково»)

  • Описание:
    Анна Беркутова - блондинка в броне из мини-юбки и глубокого декольте. Ее оружие - красота, ум и абсолютная уверенность в том, что она знает мужчин. Она ведет важный проект в Сколково и собирается замуж за богатого иностранца. Но в день ее рождения, 8 марта, ее четкая, как финансовый отчет, судьба меняется: Аню бросает жених, ее проект крадут из Сколково, а сама она начинает слышать мысли мужчин. Эта способность сначала доводит ее до отчаяния, а затем открывает широкие возможности...

  • Мировая премьера:6 марта 2014


      Качество: WEB-DLRip
      Формат: AVI
      Видео кодек: XviD
      Аудио кодек:AC3
      Видео: XviD, 720x400 (16:9), 1591 kbps, 25 fps, 0,221 bpp
      Аудио: AC3 / 5.1 / 48 kHz / 384 kbps / 16 bit


    Код:

    General
    Complete name                            : D:\Торенты\!S.8.Marta.Muzchiny.2014.O.WEB-DLRip.1400MB.avi
    Format                                   : AVI
    Format/Info                              : Audio Video Interleave
    File size                                : 1.37 GiB
    Duration                                 : 1h 38mn
    Overall bit rate                         : 1 986 Kbps
    Writing application                      : VirtualDubMod 1.5.10.3 | www.virtualdub-fr.org || (build 2550/release)
    Writing library                          : VirtualDubMod build 2550/release

    Video
    ID                                       : 0
    Format                                   : MPEG-4 Visual
    Format profile                           : Advanced Simple@L5
    Format settings, BVOP                    : 2
    Format settings, QPel                    : No
    Format settings, GMC                     : No warppoints
    Format settings, Matrix                  : Default (H.263)
    Codec ID                                 : XVID
    Codec ID/Hint                            : XviD
    Duration                                 : 1h 38mn
    Bit rate                                 : 1 592 Kbps
    Width                                    : 720 pixels
    Height                                   : 400 pixels
    Display aspect ratio                     : 16:9
    Frame rate                               : 25.000 fps
    Color space                              : YUV
    Chroma subsampling                       : 4:2:0
    Bit depth                                : 8 bits
    Scan type                                : Progressive
    Compression mode                         : Lossy
    Bits/(Pixel*Frame)                       : 0.221
    Stream size                              : 1.10 GiB (80%)
    Writing library                          : XviD 1.2.1 (UTC 2008-12-04)

    Audio
    ID                                       : 1
    Format                                   : AC-3
    Format/Info                              : Audio Coding 3
    Mode extension                           : CM (complete main)
    Codec ID                                 : 2000
    Duration                                 : 1h 38mn
    Bit rate mode                            : Constant
    Bit rate                                 : 384 Kbps
    Channel(s)                               : 6 channels
    Channel positions                        : Front: L C R, Side: L R, LFE
    Sampling rate                            : 48.0 KHz
    Bit depth                                : 16 bits
    Compression mode                         : Lossy
    Stream size                              : 271 MiB (19%)
    Alignment                                : Split accross interleaves
    Interleave, duration                     : 40 ms (1.00 video frame)
    Interleave, preload duration             : 500 ms

    Скриншоты:

    Каталог Новинок (Фильмы-трейлеры, Игры, Сериалы, Мультфильмы)

    © Оформление by Raven
    piratbit.pw



  • Скачать С 8 марта, мужчины! через торрент http://pic.kartinco.top/images/6/stazu.jpg Скачать фильм С 8 марта, мужчины! через торрент бесплантно в хорошем качестве Описание:Анна Беркутова - блондинка в броне из мини-юбки и глубокого декольте. Ее оружие - красота, ум и абсолютная уверенность в том, что ... 9.4 10 48
    Info! Золотая раздача, скачанное не засчитывается.
    Торрент: Зарегистрирован [2014-05-09 20:44] · скачан: 2 355 раз
    Статус: √ проверено
    Размер: 1.37 GB
    Как cкачать? Как скачать С 8 марта, мужчины! через торрент | qTorrent

    % Раздел Тема Автор DL S | L
    Наши новые фильмы 2014 [ 1.46 GB ] С 8 марта мужчины! [2014 DVDRip] smaster Скачать
    1 | 0
    Наши фильмы (DVD фильмы) [ 5.62 GB ] С 8 марта мужчины! [2014 DVD9] R5 voovaz Скачать
    1 | 0

    28-11-2019 20:33  

    Отключить всю рекламу на сайте

      Дорогой пользователь! Огромная просьба, поблагодарите релизера, оцените раздачу и оставьте свои комментарий, если Вы скачали С 8 марта, мужчины! через торрент бесплатно! Внесите свою лепту в развитие PiratBit!
      Комментировать посты могут только пользователи прошедшие не сложную регистрацию
      Показать сообщения:    

      С 8 марта, мужчины! через торрент
      Скачать бесплатно С 8 марта, мужчины!
      С 8 марта, мужчины! скачать торрент
      С 8 марта, мужчины! смотреть онлайн
      Cкачать фильм С 8 марта, мужчины! бесплатно
      С 8 марта, мужчины! скачать торрент в хорошем качестве
      С 8 марта, мужчины! смотреть онлайн бесплатно в хорошем качестве


      Вы не можете начинать темы
      Вы не можете отвечать на сообщения
      Вы не можете редактировать свои сообщения
      Вы не можете удалять свои сообщения
      Вы не можете голосовать в опросах
      Вы не можете прикреплять файлы к сообщениям
      Вы можете скачивать файлы