1 сезон

1 сезон

iTunes

1

iTunes

Кинопоиск HD

iTunes

13

1 сезон

RePack

30

Deluxe

ВАЖНО

ИГРА 18+

pack

RePack

MK11
pack

Легкие деньги

RePack

jed

RePack

fifa19

RePack

RDR2

RePack

NEED FOR SPEED™ PAYBACK

4 сезон

9 сезон

Бесстыжие 9 сезон

Все сериалы

все сериалы на PB.wtf

RePack

FAR CRY 5
  
Magnet ссылка

В твоё отсутствие / En tu ausencia (Иван Ноэль / Iván Noel) [2008, Испания, Канада, драма, DVDRip,Любительский (одноголосый) piratbit.pw

В твоё отсутствие через торрент piratbit.pw

Размер: 1.55 GB | Добавлен: 7 лет назад | Торрент скачан:26 раз
Скачать  

09-05-2014 17:30 В твоё отсутствие Скачать торрент  

В твоё отсутствие / En tu ausencia
Год выпуска: 2008
Страна: Испания, Канада
Жанр: драма
Продолжительность: 01:40:29
Перевод: Любительский (одноголосый) В.Прошин
Субтитры: Нет

Режиссер: Иван Ноэль / Iván Noel
В ролях: Франсиско Альфонсин (Paco), Педро Салидо Саборидо (Adult Pablo), Гонсало Санчес Салас (Pablo Benitez), Анабель Асуар (Pablo's Mother), Анна Тутор (Julia), Антонио Х. Атьенса Санчес (The Postman), Асенсио Салас Суарес (The Mechanic), Хуанхо Гальярдо (Pablo's Father), Луис Варгас Гомес (Luis - the Mechanic's Son), Луис Валье Ромеро (Town Child / Swimming Boy #1), Томас Бенитес Сото (Town Child / Swimming Boy #2), Ирена Родригес Риполь (Town Child)

Описание: Тринадцатилетний Пабло - тихий сирота с довольно тёмным прошлым. Его единственная приятельница - Юлия, бесстыжая пятнадцатилетняя девушка, пытающаяся дать Пабло несколько жизненных уроков. На тихой дороге недалеко от деревни Пабло встречает Пако - странного мужчину со сломанным автомобилем...

kinopoisk.ru: 6.922 (94)
imdb.com: 7.30 (408)

Качество: DVDRip
Формат: AVI
Видео кодек: XviD
Аудио кодек: AC3/MP3
Видео: XviD, 720x416 (16:9), 1748 kbps, 29,970 fps, 0,195 bpp
Аудио русский: MP3 / 2.0 / 44 kHz / 256 kbps /
Аудио испанский: AC3 / 2.0 / 48 kHz / 192 kbps / 16 bit


General
Complete name : C:\закачки\En.tu.ausencia_2008.DVDRip.avi
Format : AVI
Format/Info : Audio Video Interleave
File size : 1.55 GiB
Duration : 1h 40mn
Overall bit rate : 2 214 Kbps
Writing application : VirtualDubMod 1.5.10.2 (build 2540/release)
Writing library : VirtualDubMod build 2540/release

Video
ID : 0
Format : MPEG-4 Visual
Format profile : Advanced Simple@L5
Format settings, BVOP : 1
Format settings, QPel : No
Format settings, GMC : No warppoints
Format settings, Matrix : Custom
Codec ID : XVID
Codec ID/Hint : XviD
Duration : 1h 40mn
Bit rate : 1 749 Kbps
Width : 720 pixels
Height : 416 pixels
Display aspect ratio : 16:9
Frame rate : 29.970 fps
Color space : YUV
Chroma subsampling : 4:2:0
Bit depth : 8 bits
Scan type : Progressive
Compression mode : Lossy
Bits/(Pixel*Frame) : 0.195
Stream size : 1.23 GiB (79%)
Writing library : XviD 1.2.1 (UTC 2008-12-04)

Audio #1
ID : 1
Format : MPEG Audio
Format version : Version 1
Format profile : Layer 3
Codec ID : 55
Codec ID/Hint : MP3
Duration : 1h 40mn
Bit rate mode : Constant
Bit rate : 256 Kbps
Channel(s) : 2 channels
Sampling rate : 44.1 KHz
Compression mode : Lossy
Stream size : 184 MiB (12%)
Alignment : Split accross interleaves
Interleave, duration : 33 ms (1.00 video frame)
Interleave, preload duration : 500 ms
Language : Spanish

Audio #2
ID : 2
Format : AC-3
Format/Info : Audio Coding 3
Mode extension : CM (complete main)
Codec ID : 2000
Duration : 1h 40mn
Bit rate mode : Constant
Bit rate : 192 Kbps
Channel(s) : 2 channels
Channel positions : Front: L R
Sampling rate : 48.0 KHz
Bit depth : 16 bits
Compression mode : Lossy
Stream size : 138 MiB (9%)
Alignment : Split accross interleaves
Interleave, duration : 33 ms (1.00 video frame)
Interleave, preload duration : 500 ms
piratbit.pw



Скачать В твоё отсутствие через торрент http://st.kp.yandex.net/images/film_big/439882.jpg Скачать фильм В твоё отсутствие через торрент бесплантно в хорошем качестве Описание: Тринадцатилетний Пабло - тихий сирота с довольно тёмным прошлым. Его единственная приятельница - Юлия, бесстыжая пятнадцатилетняя ... 5 10 1
Торрент: Зарегистрирован [2014-05-09 17:30] · скачан: 26 раз
Статус: √ проверено
Размер: 1.55 GB
Как cкачать? Как скачать В твоё отсутствие через торрент | UTorrent

28-11-2019 20:33  

Отключить всю рекламу на сайте

    Дорогой пользователь! Огромная просьба, поблагодарите релизера, оцените раздачу и оставьте свои комментарий, если Вы скачали В твоё отсутствие через торрент бесплатно! Внесите свою лепту в развитие PiratBit!
    Комментировать посты могут только пользователи прошедшие не сложную регистрацию
    Показать сообщения:    

    В твоё отсутствие через торрент
    Скачать бесплатно В твоё отсутствие
    В твоё отсутствие скачать торрент
    В твоё отсутствие смотреть онлайн
    Cкачать фильм В твоё отсутствие бесплатно
    В твоё отсутствие скачать торрент в хорошем качестве
    В твоё отсутствие смотреть онлайн бесплатно в хорошем качестве


    Вы не можете начинать темы
    Вы не можете отвечать на сообщения
    Вы не можете редактировать свои сообщения
    Вы не можете удалять свои сообщения
    Вы не можете голосовать в опросах
    Вы не можете прикреплять файлы к сообщениям
    Вы можете скачивать файлы