1 сезон

1 сезон

iTunes

1

КиноПоиск HD

Кинопоиск HD

iTunes

13

1 сезон

RePack

30

Deluxe

ВАЖНО

ИГРА 18+

pack

RePack

MK11
pack

Легкие деньги

RePack

jed

RePack

fifa19

RePack

RDR2

RePack

NEED FOR SPEED™ PAYBACK

4 сезон

9 сезон

Бесстыжие 9 сезон

Все сериалы

все сериалы на PB.wtf

RePack

FAR CRY 5
  
Magnet ссылка

Мой друг из Фаро / Mein Freund aus Faro (Нана Неуль / Nana Neul) [2008, Германия, драма, DVDRip,Любительский (одноголосый) piratbit.pw

Мой друг из Фаро через торрент piratbit.pw

Размер: 1.44 GB | Добавлен: 6 лет 11 мес. назад | Торрент скачан:44 раза
Скачать  

08-05-2014 15:51 Мой друг из Фаро Скачать торрент  

Мой друг из Фаро / Mein Freund aus Faro
Год выпуска: 2008
Страна: Германия
Жанр: драма
Продолжительность: 01:27:42
Перевод: Любительский (одноголосый)
Субтитры: Русские (отдельно)

Режиссер: Нана Неуль / Nana Neul
В ролях: Аньорка Штрехель (Mel Wandel), Люси Хольманн (Jenny Schmidt), Мануэль Кортес (Nuno), Флориан Панцнер (Knut Wandel), Тило Прюкнер (Willi Wandel), Изольда Дихаук (Bianca), Кай-Петер Малина (Bernd), Филипп Квест (Malte), Юлишка Айхель (Vicky), Йо Мари Доминияк, Пит Фукс (Sky Chef)

Описание: Мелани одевается по-мужски, потому что в джинсах ей комфортнее, чем в юбках. Однажды впотьмах незнакомая девочка-подросток принимает ее за юношу. Оплошность случайна, но героиню завораживает сама ситуация половой мимикрии. Она скоропостижно влюбляется в смазливую малолетку. Та, в свою очередь, увлекается «ряженым», обходительным пацаном, романтичным «португальцем из Фаро». Парнем, которого нет. Обман не может длиться бесконечно, правда неизбежно выплывает наружу...

kinopoisk.ru: 6.777 (196)
imdb.com: 6.50 (263)

Качество: DVDRip
Формат: AVI
Видео кодек: XviD
Аудио кодек: AC3
Видео: XviD, 704x368 (1.913), 1956 kbps, 25 fps, 0,302 bpp
Аудио Русский: AC3 / 2.0 / 48 kHz / 192 kbps / 16 bit
Аудио Оригинал: AC3 / 2.0 / 48 kHz / 192 kbps / 16 bit
Перевод: Nike Freman
Тайминг для субтитров: bankolya
Озвучка, рип и работа со звуком: renege79 aka lehachuev


General
Complete name : C:\закачки\Mein.Freund.aus.Faro.2008\Mein.Freund.aus.Faro.2008.rus.nem.avi
Format : AVI
Format/Info : Audio Video Interleave
File size : 1.44 GiB
Duration : 1h 27mn
Overall bit rate : 2 355 Kbps
Writing application : VirtualDubMod 1.5.10.2 (build 2540/release)
Writing library : VirtualDubMod build 2540/release

Video
ID : 0
Format : MPEG-4 Visual
Format profile : Advanced Simple@L5
Format settings, BVOP : 2
Format settings, QPel : No
Format settings, GMC : No warppoints
Format settings, Matrix : Default (MPEG)
Codec ID : XVID
Codec ID/Hint : XviD
Duration : 1h 27mn
Bit rate : 1 956 Kbps
Width : 704 pixels
Height : 368 pixels
Display aspect ratio : 1.913
Frame rate : 25.000 fps
Color space : YUV
Chroma subsampling : 4:2:0
Bit depth : 8 bits
Scan type : Progressive
Compression mode : Lossy
Bits/(Pixel*Frame) : 0.302
Stream size : 1.20 GiB (83%)
Writing library : XviD 64

Audio #1
ID : 1
Format : AC-3
Format/Info : Audio Coding 3
Mode extension : CM (complete main)
Codec ID : 2000
Duration : 1h 27mn
Bit rate mode : Constant
Bit rate : 192 Kbps
Channel(s) : 2 channels
Channel positions : Front: L R
Sampling rate : 48.0 KHz
Bit depth : 16 bits
Compression mode : Lossy
Stream size : 120 MiB (8%)
Alignment : Split accross interleaves
Interleave, duration : 40 ms (1.00 video frame)
Interleave, preload duration : 500 ms

Audio #2
ID : 2
Format : AC-3
Format/Info : Audio Coding 3
Mode extension : CM (complete main)
Codec ID : 2000
Duration : 1h 27mn
Bit rate mode : Constant
Bit rate : 192 Kbps
Channel(s) : 2 channels
Channel positions : Front: L R
Sampling rate : 48.0 KHz
Bit depth : 16 bits
Compression mode : Lossy
Stream size : 120 MiB (8%)
Alignment : Split accross interleaves
Interleave, duration : 40 ms (1.00 video frame)
Interleave, preload duration : 500 ms
piratbit.pw



Скачать Мой друг из Фаро через торрент http://i26.fastpic.ru/big/2011/0814/ec/8d45b9d51eab41114af3ad8e1dae73ec.jpg Скачать фильм Мой друг из Фаро через торрент бесплантно в хорошем качестве Описание: Мелани одевается по-мужски, потому что в джинсах ей комфортнее, чем в юбках. Однажды впотьмах незнакомая девочка-подросток ... 9 10 1
Торрент: Зарегистрирован [2014-05-08 15:51] · скачан: 44 раз
Статус: √ проверено
Размер: 1.44 GB
Как cкачать? Как скачать Мой друг из Фаро через торрент | UTorrent

28-11-2019 20:33  

Отключить всю рекламу на сайте

    Дорогой пользователь! Огромная просьба, поблагодарите релизера, оцените раздачу и оставьте свои комментарий, если Вы скачали Мой друг из Фаро через торрент бесплатно! Внесите свою лепту в развитие PiratBit!
    Комментировать посты могут только пользователи прошедшие не сложную регистрацию
    Показать сообщения:    

    Мой друг из Фаро через торрент
    Скачать бесплатно Мой друг из Фаро
    Мой друг из Фаро скачать торрент
    Мой друг из Фаро смотреть онлайн
    Cкачать фильм Мой друг из Фаро бесплатно
    Мой друг из Фаро скачать торрент в хорошем качестве
    Мой друг из Фаро смотреть онлайн бесплатно в хорошем качестве


    Вы не можете начинать темы
    Вы не можете отвечать на сообщения
    Вы не можете редактировать свои сообщения
    Вы не можете удалять свои сообщения
    Вы не можете голосовать в опросах
    Вы не можете прикреплять файлы к сообщениям
    Вы можете скачивать файлы