1 сезон

1 сезон

iTunes

1

iTunes

Кинопоиск HD

iTunes

13

1 сезон

RePack

30

Deluxe

ВАЖНО

ИГРА 18+

pack

RePack

MK11
pack

Легкие деньги

RePack

jed

RePack

fifa19

RePack

RDR2

RePack

NEED FOR SPEED™ PAYBACK

4 сезон

9 сезон

Бесстыжие 9 сезон

Все сериалы

все сериалы на PB.wtf

RePack

FAR CRY 5
  
Magnet ссылка

Последний шанс Харви / Last Chance Harvey (Джоэл Хопкинс / Joel Hopkins) [2008, США, драма, мелодрама, BDRip,Профессиональный (многоголосый, закадровый) piratbit.pw

Последний шанс Харви через торрент piratbit.pw

Размер: 1.45 GB | Добавлен: 7 лет назад | Торрент скачан:97 раз
Скачать  

08-05-2014 15:35 Последний шанс Харви Скачать торрент  

Последний шанс Харви / Last Chance Harvey
Год выпуска: 2008
Страна: США
Жанр: драма, мелодрама
Продолжительность: 01:32:39
Перевод: Профессиональный (многоголосый, закадровый)
Субтитры: Нет

Режиссер: Джоэл Хопкинс / Joel Hopkins
В ролях: Дастин Хоффман (Harvey Shine), Эмма Томпсон (Kate Walker), Айлин Эткинс (Maggie), Кэти Бейкер (Jean), Лиэн Балабан (Susan), Джеймс Бролин (Brian), Ричард Шифф (Marvin), Дэниэл Лапэйн (Scott), Брона Галлахер (Oonagh), Майкл Лэндис (Peter Turner), Тим Ховар (Johnnie), Венди Мэй Браун (Aggie)

Описание: Харви одинок и уже немолод. Он живет в Нью-Йорке, зарабатывая на жизнь сочинением рекламных джинглов. Но однажды его размеренной и скучной жизни приходит конец. Прилетев в Лондон на свадьбу своей дочери, Харви неожиданно узнает, что на торжественной церемонии в качестве отца невесты выступит не он, а ее отчим. Расстроенный и обиженный. Харви опаздывает на свой самолет в Нью-Йорк. В баре аэропорта он встречает обаятельную женщину по имени Кейт, с которой его связывает очень многое - несмотря на то, что они даже не знакомы. Это последний шанс Харви...

kinopoisk.ru: 7.125 (1525)
imdb.com: 6.70 (15 832)
MPAA: PG-13 - Детям до 13 лет просмотр не желателен

Качество: BDRip
Формат: AVI
Видео кодек: XviD
Аудио кодек: AC3
Видео: XviD, 720x304 (2.35:1), 1784 kbps, 23,976 fps, 0,340 bpp
Аудио: AC3 / 5.1 / 48 kHz / 448 kbps / 16 bit

Релиз от: HELLYWOOD



General
Complete name : C:\закачки\Poslednij.shans.Harvi.2008.XviD.BDRip.HELLYWOOD.avi
Format : AVI
Format/Info : Audio Video Interleave
File size : 1.45 GiB
Duration : 1h 32mn
Overall bit rate : 2 242 Kbps
Movie name : Последний шанс Харви / Last Chance Harvey (2008) BDRip
Director : VOLKiGOR
Writing application : VirtualDubMod 1.5.10.2 (build 2540/release)

Video
ID : 0
Format : MPEG-4 Visual
Format profile : Advanced Simple@L5
Format settings, BVOP : 1
Format settings, QPel : No
Format settings, GMC : No warppoints
Format settings, Matrix : Custom
Codec ID : XVID
Codec ID/Hint : XviD
Duration : 1h 32mn
Bit rate : 1 784 Kbps
Width : 720 pixels
Height : 304 pixels
Display aspect ratio : 2.35:1
Frame rate : 23.976 fps
Color space : YUV
Chroma subsampling : 4:2:0
Bit depth : 8 bits
Scan type : Progressive
Compression mode : Lossy
Bits/(Pixel*Frame) : 0.340
Stream size : 1.15 GiB (80%)
Writing library : XviD 64

Audio
ID : 1
Format : AC-3
Format/Info : Audio Coding 3
Mode extension : CM (complete main)
Codec ID : 2000
Duration : 1h 32mn
Bit rate mode : Constant
Bit rate : 448 Kbps
Channel(s) : 6 channels
Channel positions : Front: L C R, Side: L R, LFE
Sampling rate : 48.0 KHz
Bit depth : 16 bits
Compression mode : Lossy
Stream size : 297 MiB (20%)
Alignment : Split accross interleaves
Interleave, duration : 42 ms (1.00 video frame)
Interleave, preload duration : 500 ms
piratbit.pw



Скачать Последний шанс Харви через торрент http://tvpixy.com/uploads/posts/2011-10/1318022927_54aea8b6c931c0d53e1292b1eb8b2ebe.jpg Скачать фильм Последний шанс Харви через торрент бесплантно в хорошем качестве Описание: Харви одинок и уже немолод. Он живет в Нью-Йорке, зарабатывая на жизнь сочинением рекламных джинглов. Но однажды его размеренной ... 10 10 2
Торрент: Зарегистрирован [2014-05-08 15:35] · скачан: 97 раз
Статус: √ проверено
Размер: 1.45 GB
Как cкачать? Как скачать Последний шанс Харви через торрент | UTorrent

% Раздел Тема Автор DL S | L
Фильмы [HD 720p, 1080p] (Хороший звук DUB, MVO) [ 10.12 GB ] Последний шанс Харви / Last Chance Harvey [2008 BDRip 1080p by msltel] MVO DVO AVO msltel Скачать
1 | 0
Фильмы [HD 720p, 1080p] (Хороший звук DUB, MVO) [ 3.77 GB ] Последний шанс Харви / Last Chance Harvey [2008 BDRip 720p by msltel] MVO DVO AVO msltel Скачать
1 | 0
Фильмы с авторской озвучкой [ 1.45 GB ] Последний шанс Харви / Last Chance Harvey [2008 BDRip] [AVO] killermax2013 Скачать
1 | 0
Фильмы [HD 720p, 1080p] (Хороший звук DUB, MVO) [ 9.77 GB ] Последний шанс Харви / Last Chance Harvey [2008 BDRip 1080p] |MVO DVO AVO | кэп Скачать
1 | 0

28-11-2019 20:33  

Отключить всю рекламу на сайте

    Дорогой пользователь! Огромная просьба, поблагодарите релизера, оцените раздачу и оставьте свои комментарий, если Вы скачали Последний шанс Харви через торрент бесплатно! Внесите свою лепту в развитие PiratBit!
    Комментировать посты могут только пользователи прошедшие не сложную регистрацию
    Показать сообщения:    

    Последний шанс Харви через торрент
    Скачать бесплатно Последний шанс Харви
    Последний шанс Харви скачать торрент
    Последний шанс Харви смотреть онлайн
    Cкачать фильм Последний шанс Харви бесплатно
    Последний шанс Харви скачать торрент в хорошем качестве
    Последний шанс Харви смотреть онлайн бесплатно в хорошем качестве


    Вы не можете начинать темы
    Вы не можете отвечать на сообщения
    Вы не можете редактировать свои сообщения
    Вы не можете удалять свои сообщения
    Вы не можете голосовать в опросах
    Вы не можете прикреплять файлы к сообщениям
    Вы можете скачивать файлы