1 сезон

3 сезон

iTunes

1

iTunes

DUB Netflix

iTunes

13

1 сезон

RePack

30

Deluxe

pack

Легкие деньги

ВАЖНО

ИГРА 18+

pack

RePack

MK11

RePack

jed

RePack

fifa19

RePack

RDR2

RePack

NEED FOR SPEED™ PAYBACK

4 сезон

9 сезон

Бесстыжие 9 сезон

Все сериалы

все сериалы на PB.wtf

RePack

FAR CRY 5

Anonymous, доброй ночи, мы не успеваем до 1 числа собрать деньги на оплату серверов, помогите нам пожалуйста в это трудное время. В качестве благодарности мы отключим Вам всю рекламу на сайте (укажите свой ник в строку Ваше имя)!

×
  
Magnet ссылка

Первый день оставшейся жизни / Le premier jour du reste de ta vie (Реми Безансон / Rémi Bezançon) [2008, Франция, драма, BDRip,Любительский (двухголосый) piratbit.pw

Первый день оставшейся жизни через торрент piratbit.pw

Размер: 2.54 GB | Добавлен: 7 лет 1 мес. назад | Торрент скачан:43 раза
Скачать  

08-05-2014 15:20 Первый день оставшейся жизни Скачать торрент  

Первый день оставшейся жизни / Le premier jour du reste de ta vie
Год выпуска: 2008
Страна: Франция
Жанр: драма
Продолжительность: 01:52:57
Перевод: Любительский (двухголосый) (Валерий Феодосов и Елена Егорова)
Субтитры: Русские, английские, французские (отдельно)

Режиссер: Реми Безансон / Rémi Bezançon
В ролях: Жак Гамблен (Robert Duval), Забу Брайтман (Marie-Jeanne Duval), Дебора Франсуа (Fleur Duval), Марк-Андре Гронден (Raphaël Duval), Пио Мармай (Albert Duval), Роже Дюма (Pierre), Сесиль Кассель (Prune), Стэнли Вебер (Éric), Сара Коэн-Хадриа (Clara), Камилла Де Паззи (Moïra), Эмерик Комеруа (Sacha), Жан-Жак Вайнер (Mathias Moreau)

Описание: Первый день твоей жизни... или рассказ о пяти решающих днях в судьбе семьи Дюраль. У Мари-Жан и Робера Дюваля есть трое детей: Альбер, Рафаэль и Флор. Портрет этих персонажей вырисовывается на протяжении десятков лет в разрезе пяти особых дней. Пять дат, которые всколыхнули их жизнь.

kinopoisk.ru: 8.267 (1146)
imdb.com: 7.70 (5565)

Качество: BDRip
Формат: AVI
Видео кодек: XviD
Аудио кодек: AC3
Видео: XviD, 720x304 (2.35:1), 2305 kbps, 24 fps, 0,439 bpp
Аудио: AC3 / 5.1 / 48 kHz / 448 kbps / 16 bit
Режиссер Реми Безансон поначалу не хотел брать канадца Марка-Андре Грондена на роль Рафаэля Дюваля из-за его Квебекского акцента, но, все-таки, дал ему шанс. После двух месяцев работы с тренером по речи, актер улучшил свое произношение и заговорил как истинный парижанин. Тяжелая работа не была напрасной: фильм имел коммерческий успех, получил теплые отзывы от критиков, а также огромное количество номинаций на премию Сезар в 2009 году, которую Марк получил как самый многообещающий актер.



General
Complete name : C:\закачки\Первый день оставшейся жизни\Первый день оставшейся жизни.avi
Format : AVI
Format/Info : Audio Video Interleave
Format profile : OpenDML
File size : 2.18 GiB
Duration : 1h 52mn
Overall bit rate : 2 766 Kbps
Movie name : Первый день оставшейся жизни
Director : derdevil13
Writing application : VirtualDubMod 1.5.10.3 (build 2550/release)

Video
ID : 0
Format : MPEG-4 Visual
Format profile : Advanced Simple@L5
Format settings, BVOP : 2
Format settings, QPel : No
Format settings, GMC : No warppoints
Format settings, Matrix : Custom
Codec ID : XVID
Codec ID/Hint : XviD
Duration : 1h 52mn
Bit rate : 2 306 Kbps
Width : 720 pixels
Height : 304 pixels
Display aspect ratio : 2.35:1
Frame rate : 24.000 fps
Color space : YUV
Chroma subsampling : 4:2:0
Bit depth : 8 bits
Scan type : Progressive
Compression mode : Lossy
Bits/(Pixel*Frame) : 0.439
Stream size : 1.82 GiB (83%)
Writing library : XviD 73

Audio
ID : 1
Format : AC-3
Format/Info : Audio Coding 3
Mode extension : CM (complete main)
Codec ID : 2000
Duration : 1h 52mn
Bit rate mode : Constant
Bit rate : 448 Kbps
Channel(s) : 6 channels
Channel positions : Front: L C R, Side: L R, LFE
Sampling rate : 48.0 KHz
Bit depth : 16 bits
Compression mode : Lossy
Stream size : 362 MiB (16%)
Alignment : Split accross interleaves
Interleave, duration : 42 ms (1.00 video frame)
Interleave, preload duration : 500 ms
piratbit.pw



Скачать Первый день оставшейся жизни через торрент http://kino-rex.com/_ld/46/s57598217.jpg Скачать фильм Первый день оставшейся жизни через торрент бесплантно в хорошем качестве Описание: Первый день твоей жизни... или рассказ о пяти решающих днях в судьбе семьи Дюраль. У Мари-Жан и Робера Дюваля есть трое детей: ... 5 10 1
Торрент: Зарегистрирован [2014-05-08 15:20] · скачан: 43 раз
Статус: √ проверено
Размер: 2.54 GB
Как cкачать? Как скачать Первый день оставшейся жизни через торрент | UTorrent

% Раздел Тема Автор DL S | L
Фильмы 2006-2008 [ 1.46 GB ] Первый день оставшейся жизни / Le premier jour du reste de ta vie [2008 HDRip DVO] кэп Скачать
1 | 0

28-11-2019 20:33  

Отключить всю рекламу на сайте

    Дорогой пользователь! Огромная просьба, поблагодарите релизера, оцените раздачу и оставьте свои комментарий, если Вы скачали Первый день оставшейся жизни через торрент бесплатно! Внесите свою лепту в развитие PiratBit!
    Комментировать посты могут только пользователи прошедшие не сложную регистрацию
    Показать сообщения:    

    Первый день оставшейся жизни через торрент
    Скачать бесплатно Первый день оставшейся жизни
    Первый день оставшейся жизни скачать торрент
    Первый день оставшейся жизни смотреть онлайн
    Cкачать фильм Первый день оставшейся жизни бесплатно
    Первый день оставшейся жизни скачать торрент в хорошем качестве
    Первый день оставшейся жизни смотреть онлайн бесплатно в хорошем качестве


    Вы не можете начинать темы
    Вы не можете отвечать на сообщения
    Вы не можете редактировать свои сообщения
    Вы не можете удалять свои сообщения
    Вы не можете голосовать в опросах
    Вы не можете прикреплять файлы к сообщениям
    Вы можете скачивать файлы