Ссылка на приватное зеркало всего за 1$. Внимание количество ограничено!!!

iTunes

iTunes

iTunes

1

iTunes

iTunes

iTunes

iTunes

iTunes

30
pack

$ от Little Big

ВАЖНО

!!Акция!!

Alien_RageХит недели

RePack

Resident Evil 21

ИГРА 18+

pack

RePack

jed

!!Акция!!

Alien_Rage

RePack

fifa19

RePack

Assassins Creed: Odyssey

RePack

NEED FOR SPEED™ PAYBACK

4 сезон

9 сезон

Бесстыжие 9 сезон

Все сериалы

все сериалы на PB.wtf

RePack

FAR CRY 5
  

Спираль (Андрей Волгин) [2014 г., Боевик, BDRip-AVC] [Лицензия] piratbit.pw

Спираль через торрент piratbit.pw

Размер: 1.45 GB | Добавлен: 6 лет 2 мес. назад | Торрент скачан:1404 раза
Скачать  

08-05-2014 14:44 Спираль Скачать торрент  

«Игра бесконечна…»
Спираль
Год выпуска: 2014
Страна: Россия / студия «Питон»
Жанр: Боевик
Продолжительность: 01:37:40
Тип релиза: Лицензия
Субтитры: Нет

Режиссер: Андрей Волгин



В ролях: Константин Крюков, Анатолий Руденко, Вениамин Смехов, Александр Яцко, Никита Высоцкий, Кларисса Барская, Константин Глушков, Владимир Стержаков, Марина Куделинская, Рената Пиотровски

Описание: Главный герой истории — Алексей, талантливый программист из Новосибирска, приезжает в Москву и становится членом закрытого полулегального элитного клуба под названием «Спираль». Как новичку ему крупно везет, и он выигрывает одну экстремальную игру клуба за другой, получая сумасшедшие гонорары. В него влюбляется такая девушка, о какой он даже не мог мечтать.
Но в одночасье красивый мир вокруг него рушится, и он влипает в крупные неприятности — его обвиняют в ограблении банка, любимая девушка не верит в его невиновность, и в довершении всего его пытаются убить…

Качество: BDRip-AVC
Формат: MKV
Видео кодек: H.264
Аудио кодек: AC3
Видео: 1032x432 (2,40:1), 25,000 fps, 1672 Кbps, 0.150 bit/pixel
Аудио: 48 kHz, AC3 Dolby Digital, 3/2 (L,C,R,l,r) + LFE ch, 448.00 kbps

Релиз группы:
Автор рипа: potroks

Общее
Уникальный идентификатор : 233217117486931931717778640749670115690 (0xAF73FBA69ED3C70A8BB25A5191AF296A)
Полное имя : Spiral'.2014.RUS.BDRip.x264.-HELLYWOOD.mkv
Формат : Matroska
Версия формата : Version 4 / Version 2
Размер файла : 1,45 Гбайт
Продолжительность : 1 ч. 37 м.
Общий поток : 2121 Кбит/сек
Название фильма : HELLYWOOD - rip by potroks
Дата кодирования : UTC 2014-05-08 14:03:03
Программа кодирования : mkvmerge v5.9.0 ('On The Loose') built on Dec 15 2012 16:39:58
Библиотека кодирования : libebml v1.3.0 + libmatroska v1.4.0

Видео
Идентификатор : 1
Формат : AVC
Формат/Информация : Advanced Video Codec
Профиль формата : High@L4.1
Параметр CABAC формата : Да
Параметр ReFrames формата : 10 кадров
Идентификатор кодека : V_MPEG4/ISO/AVC
Продолжительность : 1 ч. 37 м.
Битрейт : 1672 Кбит/сек
Ширина : 1032 пикселя
Высота : 432 пикселя
Соотношение сторон : 2,40:1
Режим частоты кадров : Постоянный
Частота кадров : 25,000 кадров/сек
Цветовое пространство : YUV
Субдискретизация насыщенности : 4:2:0
Битовая глубина : 8 бит
Тип развёртки : Прогрессивная
Бит/(Пиксели*Кадры) : 0.150
Размер потока : 1,11 Гбайт (77%)
Заголовок : Спираль
Библиотека кодирования : x264 core 130 r2273 b3065e6
Настройки программы : cabac=1 / ref=10 / deblock=1:-2:-1 / analyse=0x3:0x133 / me=umh / subme=11 / psy=1 / psy_rd=1.01:0.03 / mixed_ref=1 / me_range=32 / chroma_me=1 / trellis=2 / 8x8dct=1 / cqm=0 / deadzone=21,11 / fast_pskip=0 / chroma_qp_offset=-3 / threads=9 / lookahead_threads=6 / sliced_threads=0 / nr=0 / decimate=0 / interlaced=0 / bluray_compat=0 / constrained_intra=0 / bframes=11 / b_pyramid=2 / b_adapt=2 / b_bias=0 / direct=3 / weightb=1 / open_gop=0 / weightp=2 / keyint=250 / keyint_min=23 / scenecut=40 / intra_refresh=0 / rc_lookahead=60 / rc=2pass / mbtree=0 / bitrate=1672 / ratetol=1.0 / qcomp=0.70 / qpmin=0 / qpmax=69 / qpstep=4 / cplxblur=20.0 / qblur=0.5 / vbv_maxrate=20000 / vbv_bufsize=20000 / nal_hrd=none / ip_ratio=1.35 / pb_ratio=1.25 / aq=1:0.80
Язык : Russian
Default : Да
Forced : Нет

Аудио
Идентификатор : 2
Формат : AC-3
Формат/Информация : Audio Coding 3
Расширение режима : CM (complete main)
Параметр Endianness формата : Big
Идентификатор кодека : A_AC3
Продолжительность : 1 ч. 37 м.
Вид битрейта : Постоянный
Битрейт : 448 Кбит/сек
Каналы : 6 каналов
Расположение каналов : Front: L C R, Side: L R, LFE
Частота : 48,0 КГц
Битовая глубина : 16 бит
Метод сжатия : С потерями
Размер потока : 313 Мбайт (21%)
Заголовок : DD | 5.1 @ 448 kbps
Язык : Russian
Default : Да
Forced : Нет

Меню
00:00:00.000 : :Chapter 01
00:08:29.359 : :Chapter 02
00:19:05.400 : :Chapter 03
00:24:32.880 : :Chapter 04
00:32:32.280 : :Chapter 05
00:39:00.520 : :Chapter 06
00:48:09.280 : :Chapter 07
00:56:34.480 : :Chapter 08
01:04:08.400 : :Chapter 09
01:12:22.800 : :Chapter 10
01:21:00.240 : :Chapter 11
01:33:03.880 : :Chapter 12
01:37:40.120 : :Chapter 13

piratbit.pw



Скачать Спираль через торрент http://i64.fastpic.ru/big/2014/0508/0d/2c6a4f26d9d747f4437e9cc4cf8dd10d.png Скачать фильм Спираль через торрент бесплантно в хорошем качестве Описание: Главный герой истории — Алексей, талантливый программист из Новосибирска, приезжает в Москву и становится членом закрытого ... 9.4 10 31
Info! Золотая раздача, скачанное не засчитывается.
Торрент: Зарегистрирован [2014-05-08 14:44] · скачан: 1 404 раз
Статус: √ проверено
Размер: 1.45 GB
Как cкачать? Как скачать Спираль через торрент | qTorrent

% Раздел Тема Автор DL S | L
Ужасы, Мистика [ 2.19 GB ] Кодзи Судзуки - Цикл "Звонок" [Андрей Левин 2008 128-192 kbps] Alpatyk Скачать
1 | 0
Зарубежные сериалы [ 7.29 GB ] Спираль / Helix / 1 сезон / 1-13 серии из 13 [2014 WEB-DLRip ] MVO [BaibaKo] bober100 Скачать
1 | 0
Зарубежные сериалы [ 4.45 GB ] Спираль / Engrenages / Сезон: 1 / Серии 1-8 из 8 [2005 HDRip] MVO PROCTOLOG Скачать
1 | 0
Зарубежные сериалы [ 5.29 GB ] Спираль времени / Taimu supairaru / Сезон: 1 / Серии 1-8 из 8 [2014 Япония HDTVRip 720p Любительский GEKADOL Скачать
1 | 0
Зарубежные сериалы [ 17.83 GB ] Спираль / Helix / Сезон: 1 / Серии 1-13 из 13 [2014 WEB-DLRip 720p] MVO GEKADOL Скачать
1 | 0
Зарубежные сериалы [ 22.58 GB ] Спираль / Helix / Сезон: 2 / Серии 1-13 из 13 [2015 WEB-DL 1080p MVO] [BaibaKo] GEKADOL Скачать
1 | 0
Зарубежные сериалы [ 7.88 GB ] Спираль / Helix / Сезон: 2 / Серии 1-13 из 13 [2015 WEB-DLRip MVO] [BaibaKo] GEKADOL Скачать
1 | 0

28-11-2019 20:33  

Отключить всю рекламу на сайте

18-05-2014 13:18 Спираль Скачать торрент  

Бред! Не советую смотреть это , 1,5 часа убитого зря времени.piratbit.pw



19-05-2014 22:54 Спираль Скачать торрент  

Tranman писал(а):

Бред! Не советую смотреть это , 1,5 часа убитого зря времени.

Кто бы сомневался ...piratbit.pw



    Дорогой пользователь! Огромная просьба, поблагодарите релизера, оцените раздачу и оставьте свои комментарий, если Вы скачали Спираль через торрент бесплатно! Внесите свою лепту в развитие PiratBit!
    Комментировать посты могут только пользователи прошедшие не сложную регистрацию
    Показать сообщения:    

    Спираль через торрент
    Скачать бесплатно Спираль
    Спираль скачать торрент
    Спираль смотреть онлайн
    Cкачать фильм Спираль бесплатно
    Спираль скачать торрент в хорошем качестве
    Спираль смотреть онлайн бесплатно в хорошем качестве


    Вы не можете начинать темы
    Вы не можете отвечать на сообщения
    Вы не можете редактировать свои сообщения
    Вы не можете удалять свои сообщения
    Вы не можете голосовать в опросах
    Вы не можете прикреплять файлы к сообщениям
    Вы можете скачивать файлы