Ссылка на приватное зеркало нашего сайта всего за 1$. Внимание количество ограничено!!!

2 сезон

iTunes

1 сезон

1

iTunes

iTunes

iTunes

1 сезон

RePack

30

ИГРА 18+

pack

ВАЖНО

!!Акция!!

Alien_RageХит недели

RePack

MK11
pack

Забери бонус

RePack

jed

!!Акция!!

Alien_Rage

RePack

fifa19

RePack

Assassins Creed: Odyssey

RePack

NEED FOR SPEED™ PAYBACK

4 сезон

9 сезон

Бесстыжие 9 сезон

Все сериалы

все сериалы на PB.wtf

RePack

FAR CRY 5
  

Авантюристы (Константин Буслов) [2014, Россия, приключения, WEBRip] piratbit.pw

Авантюристы через торрент piratbit.pw

Размер: 1.37 GB | Добавлен: 6 лет 5 мес. назад | Торрент скачан:4258 раз
Скачать  

08-05-2014 12:02 Авантюристы Скачать торрент  


Авантюристы


Год выпуска: 2014
Страна:Россия
Жанр:приключения
Продолжительность:01:28:35
Перевод:Не требуется
Субтитры: Нет
Режиссер:Константин Буслов

  • В ролях:

    Константин Хабенский (Макс), Светлана Ходченкова (Катя), Денис Шведов (Андрей)

  • Описание:
    Катя и Андрей, успешный молодой банкир, прилетают на Мальту на отдых. В дайвинг-центре они случайно встречают Макса - профессионального дайвера, тайком занимающегося черной археологией, и, по совместительству, бывшего возлюбленного Кати.
    Во время одного из погружений Катя находит фрагмент спасательного жилета с номером немецкой подлодки времен Второй мировой. Девушка выясняет, что в 1942 году у мальтийского ордена рыцарей-госпитальеров была похищена коллекция уникальных древнеегипетских реликвий, которая должна была быть доставлена в Германию именно на подлодке. Однако ценный груз туда в итоге не прибыл.
    Рассудив, что подводная лодка с сокровищами, скорее всего, лежит на дне у берегов Мальты, троица начинает ее поиски, ввязываясь в череду опасных авантюр, в том числе и подводных. А отношения между искателями приключений все больше напоминают любовный треугольник...

  • Мировая премьера:17 апреля 2014


      Качество: WEBRip
      Формат: AVI
      Видео кодек: XviD
      Аудио кодек:AC3
      Видео: XviD, 720x304 (2.35:1), 1879 kbps, 25 fps, 0,344 bpp
      Аудио: AC3 / 2.0 / 48 kHz / 320 kbps / 16 bit


    Код:

    General
    Complete name                            : D:\Торенты\Avontur1st0.2014.O.WEBRip.1400Mb.avi
    Format                                   : AVI
    Format/Info                              : Audio Video Interleave
    File size                                : 1.37 GiB
    Duration                                 : 1h 28mn
    Overall bit rate                         : 2 209 Kbps
    Writing application                      : VirtualDubMod 1.5.10.2 (build 2540/release)
    Writing library                          : VirtualDubMod build 2540/release

    Video
    ID                                       : 0
    Format                                   : MPEG-4 Visual
    Format profile                           : Advanced Simple@L5
    Format settings, BVOP                    : 2
    Format settings, QPel                    : No
    Format settings, GMC                     : No warppoints
    Format settings, Matrix                  : Custom
    Codec ID                                 : XVID
    Codec ID/Hint                            : XviD
    Duration                                 : 1h 28mn
    Bit rate                                 : 1 880 Kbps
    Width                                    : 720 pixels
    Height                                   : 304 pixels
    Display aspect ratio                     : 2.35:1
    Frame rate                               : 25.000 fps
    Color space                              : YUV
    Chroma subsampling                       : 4:2:0
    Bit depth                                : 8 bits
    Scan type                                : Progressive
    Compression mode                         : Lossy
    Bits/(Pixel*Frame)                       : 0.344
    Stream size                              : 1.16 GiB (85%)
    Writing library                          : XviD 1.2.1 (UTC 2008-12-04)

    Audio
    ID                                       : 1
    Format                                   : AC-3
    Format/Info                              : Audio Coding 3
    Mode extension                           : CM (complete main)
    Codec ID                                 : 2000
    Duration                                 : 1h 28mn
    Bit rate mode                            : Constant
    Bit rate                                 : 320 Kbps
    Channel(s)                               : 2 channels
    Channel positions                        : Front: L R
    Sampling rate                            : 48.0 KHz
    Bit depth                                : 16 bits
    Compression mode                         : Lossy
    Stream size                              : 203 MiB (14%)
    Alignment                                : Split accross interleaves
    Interleave, duration                     : 40 ms (1.00 video frame)
    Interleave, preload duration             : 500 ms

    Скриншоты:

    Каталог Новинок (Фильмы-трейлеры, Игры, Сериалы, Мультфильмы)

    © Оформление by Raven
    piratbit.pw



  • Скачать Авантюристы через торрент http://pic.kartinco.top/images/6/stazu.jpg Скачать фильм Авантюристы через торрент бесплантно в хорошем качестве Описание:Катя и Андрей, успешный молодой банкир, прилетают на Мальту на отдых. В дайвинг-центре они случайно встречают Макса - ... 9.3 10 74
    Info! Золотая раздача, скачанное не засчитывается.
    Торрент: Зарегистрирован [2014-05-08 12:02] · скачан: 4 258 раз
    Статус: T временная
    Размер: 1.37 GB
    Как cкачать? Как скачать Авантюристы через торрент | qTorrent

    % Раздел Тема Автор DL S | L
    Фильмы с авторской озвучкой [ 2.17 GB ] Тихушники / Авантюристы / Sneakers [1992 BDRip] 2x[AVO] killermax2013 Скачать
    1 | 0
    Фильмы [HD 720p, 1080p] (Хороший звук DUB, MVO) [ 12.39 GB ] Авантюристы / Les Morfalous [1984 военный BDRip 1080p by msltel] MVO msltel Скачать
    1 | 0
    Фильмы [HD 720p, 1080p] (Хороший звук DUB, MVO) [ 4.75 GB ] Авантюристы / Les Morfalous [1984 военный BDRip 720p by msltel] MVO msltel Скачать
    1 | 0
    Фильмы с авторской озвучкой [ 1.46 GB ] Авантюристы / The Adventurers [2017 BDRip] [AVO] killermax2013 Скачать
    2 | 0
    T Азиатские фильмы [ 1.46 GB ] Авантюристы / The Adventurers [2017 BDRip] MVO [@MUZOBOZ@] bober100 Скачать
    2 | 0
    Фильмы до 2000 г. [ 1.46 GB ] Авантюристы / Les morfalous [1984 военный DVDRip] [MVO] killermax2013 Скачать
    1 | 0
    Наши фильмы (DVD фильмы) [ 4.02 GB ] Авантюристы [2014 DVD5] R5 voovaz Скачать
    1 | 0

    28-11-2019 20:33  

    Отключить всю рекламу на сайте

    08-05-2014 13:04 Авантюристы Скачать торрент  

    опять сперли сюжет))) http://www.kinopoisk.ru/film/61261/ куда интереснее!piratbit.pw



    10-05-2014 13:44 Авантюристы Скачать торрент  

    отличное кино-смотрел отдыхал...piratbit.pw



    10-06-2014 16:45 Авантюристы Скачать торрент  

    актёры по душе смотреть будуpiratbit.pw



      Дорогой пользователь! Огромная просьба, поблагодарите релизера, оцените раздачу и оставьте свои комментарий, если Вы скачали Авантюристы через торрент бесплатно! Внесите свою лепту в развитие PiratBit!
      Комментировать посты могут только пользователи прошедшие не сложную регистрацию
      Показать сообщения:    

      Авантюристы через торрент
      Скачать бесплатно Авантюристы
      Авантюристы скачать торрент
      Авантюристы смотреть онлайн
      Cкачать фильм Авантюристы бесплатно
      Авантюристы скачать торрент в хорошем качестве
      Авантюристы смотреть онлайн бесплатно в хорошем качестве


      Вы не можете начинать темы
      Вы не можете отвечать на сообщения
      Вы не можете редактировать свои сообщения
      Вы не можете удалять свои сообщения
      Вы не можете голосовать в опросах
      Вы не можете прикреплять файлы к сообщениям
      Вы можете скачивать файлы