1 сезон

1 сезон

iTunes

1

КиноПоиск HD

Кинопоиск HD

iTunes

13

1 сезон

RePack

30

Ultimate

ВАЖНО

ИГРА 18+

pack

RePack

MK11
pack

Легкие деньги

RePack

jed

RePack

fifa19

RePack

RDR2

RePack

NEED FOR SPEED™ PAYBACK

4 сезон

9 сезон

Бесстыжие 9 сезон

Все сериалы

все сериалы на PB.wtf

RePack

FAR CRY 5
  
Magnet ссылка

Гадкий я 2 / Despicable Me 2 (Пьер Соффин, Крис Рено) [2013 г., мультфильм, фантастика, комедия, криминал, приключения, семейный, BDRip, Авторский одноголосый (Ю. Сербин)] piratbit.pw

Гадкий я 2 через торрент piratbit.pw

Размер: 2.19 GB | Добавлен: 6 лет 11 мес. назад | Торрент скачан:298 раз
Скачать  

04-05-2014 06:33 Гадкий я 2 Скачать торрент  

Гадкий я 2 / Despicable Me 2
Год выпуска: 2013
Страна: США / Universal Pictures, Illumination Entertainment
Жанр: мультфильм, фантастика, комедия, криминал, приключения, семейный
Продолжительность: 01:37:58
Перевод: Авторский одноголосый (Ю. Сербин)

Режиссер: Пьер Соффин, Крис Рено

В ролях: Стив Карелл, Кристен Уиг, Бенджамин Брэтт, Миранда Косгров, Расселл Брэнд, Кен Жонг, Стив Куган, Элси Фишер, Дэна Гайер, Мойзес Ариас

Описание: В то время как Грю, бывший суперзлодей, приспосабливается к семейной жизни и пытается честным трудом зарабатывать в сфере бизнеса, тайные лаборатории Арктики оказываются украденными. Анти-Злодейская лига решает, что она нуждается в помощи Грю и его новобранцев в расследовании.

Качество: BDRip (Рип с BD-Remux 1080p)
Формат: AVI
Видео кодек: XviD
Аудио кодек: AC3
Видео: 720x384 (1.88:1), 23.976 fps, XviD build 50 ~2742 kbps avg, 0.41 bit/pixel
Аудио: 48 kHz, AC3 Dolby Digital, 3/2 (L,C,R,l,r) + LFE ch, ~448 kbps


Общее
Полное имя : H:\кино\Despicable Me 2.2013.BDRip.avi
Формат : AVI
Формат/Информация : Audio Video Interleave
Профиль формата : OpenDML
Размер файла : 2,19 Гбайт
Продолжительность : 1 ч. 37 м.
Общий поток : 3197 Кбит/сек
Название фильма : Despicable Me 2.2013.BDRip.avi
Режиссёр : Rip by coc900
Программа кодирования : VirtualDubMod 1.5.10.3 | www.virtualdub-fr.org || (build 2550/release)

Видео
Идентификатор : 0
Формат : MPEG-4 Visual
Профиль формата : Advanced Simple@L5
Параметр BVOP формата : 2
Параметр QPel формата : Нет
Параметр GMC формата : Без точки перехода
Параметр матрицы формата : Default (H.263)
Идентификатор кодека : XVID
Идентификатор кодека/Подсказка : XviD
Продолжительность : 1 ч. 37 м.
Битрейт : 2737 Кбит/сек
Ширина : 720 пикселей
Высота : 384 пикселя
Соотношение сторон : 1,85:1
Частота кадров : 23,976 кадра/сек
Цветовое пространство : YUV
Субдискретизация насыщенности : 4:2:0
Битовая глубина : 8 бит
Тип развёртки : Прогрессивная
Метод сжатия : С потерями
Бит/(Пиксели*Кадры) : 0.413
Размер потока : 1,87 Гбайт (86%)
Библиотека кодирования : XviD 1.2.1 (UTC 2008-12-04)

Аудио
Идентификатор : 1
Формат : AC-3
Формат/Информация : Audio Coding 3
Расширение режима : CM (complete main)
Параметр Endianness формата : Big
Идентификатор кодека : 2000
Продолжительность : 1 ч. 37 м.
Вид битрейта : Постоянный
Битрейт : 448 Кбит/сек
Каналы : 6 каналов
Расположение каналов : Front: L C R, Side: L R, LFE
Частота : 48,0 КГц
Битовая глубина : 16 бит
Метод сжатия : С потерями
Размер потока : 314 Мбайт (14%)
Выравнивание : Разделение по промежуткам
Продолжительность промежутка : 42 мс. (1,00 видеокадр)
Время предзагрузки промежутка : 500 мс.

piratbit.pw



Скачать Гадкий я 2 через торрент http://i55.fastpic.ru/big/2014/0504/10/bc8f59243d6ea7263492aa87d14f6510.jpg Скачать фильм Гадкий я 2 через торрент бесплантно в хорошем качестве Описание: В то время как Грю, бывший суперзлодей, приспосабливается к семейной жизни и пытается честным трудом зарабатывать в сфере ... 9.8 10 12
Торрент: Зарегистрирован [2014-05-04 06:33] · скачан: 298 раз
Статус: √ проверено
Размер: 2.19 GB
Как cкачать? Как скачать Гадкий я 2 через торрент | UTorrent

% Раздел Тема Автор DL S | L
Мультфильмы (48-60 fps) [ 4 GB ] Гадкий я 2 / Despicable Me 2 [2013 мультфильм BDRip 720p / 60 FPS ] от R.G. HD-Films slaventi-69 Скачать
5 | 0
Ultra HD (UHD: 2K, 4K, 8K) [ 33.7 GB ] Гадкий я 2 / Despicable Me 2 [2013 мультфильм UHD BDRemux 2160p] DVO+2xAVO+DUB [BD EUR] bober100 Скачать
1 | 0
Зарубежные Мультфильмы (BDRip 1080p, 720p, Blu-ray, BD-Remux) [ 3.78 GB ] Гадкий Я 2 / Despicable Me 2 [2013 мультфильм BDRip 1080p HEVC ] Мичман37 Скачать
3 | 0
Ultra HD (UHD: 2K, 4K, 8K) [ 26.43 GB ] Гадкий я 2 / Despicable Me 2 [2013 мультфильм UHD BDRemux 2160p] 2xMVO +DUB [BD EUR] bober100 Скачать
1 | 0
Зарубежные Мультфильмы (BDRip 1080p, 720p, Blu-ray, BD-Remux) [ 4.37 GB ] Гадкий я 2 / Despicable Me 2 [2013 мультфильм BDRip 720p]Dub[лицензия] Ворон Скачать
1 | 0
Фильмы с украинским озвучиванием [ 1.32 GB ] Гадкий я 2 / Нікчемний я 2 / Despicable Me 2 [2013 мультфильм BDRip] [Ukr DUB] killermax2013 Скачать
1 | 0
Иностранные мультфильмы [ 1.45 GB ] Гадкий я 2 / Despicable Me 2 [2013 мультфильм BDRip () [] 19Diman Скачать
1 | 1

28-11-2019 20:33  

Отключить всю рекламу на сайте

04-05-2014 09:41 Гадкий я 2 Скачать торрент  

очень хорошая вещь-и для детей и для взрослыхpiratbit.pw



04-05-2014 10:23 Гадкий я 2 Скачать торрент  

Угарный мульт, мои киндеры его смотрели раз нацатьpiratbit.pw



    Дорогой пользователь! Огромная просьба, поблагодарите релизера, оцените раздачу и оставьте свои комментарий, если Вы скачали Гадкий я 2 через торрент бесплатно! Внесите свою лепту в развитие PiratBit!
    Комментировать посты могут только пользователи прошедшие не сложную регистрацию
    Показать сообщения:    

    Гадкий я 2 через торрент
    Скачать бесплатно Гадкий я 2
    Гадкий я 2 скачать торрент
    Гадкий я 2 смотреть онлайн
    Cкачать фильм Гадкий я 2 бесплатно
    Гадкий я 2 скачать торрент в хорошем качестве
    Гадкий я 2 смотреть онлайн бесплатно в хорошем качестве


    Вы не можете начинать темы
    Вы не можете отвечать на сообщения
    Вы не можете редактировать свои сообщения
    Вы не можете удалять свои сообщения
    Вы не можете голосовать в опросах
    Вы не можете прикреплять файлы к сообщениям
    Вы можете скачивать файлы