Ссылка на приватное зеркало нашего сайта всего за 1$. Внимание количество ограничено!!!

2 сезон

iTunes

1 сезон

1

iTunes

iTunes

iTunes

1 сезон

RePack

30

ИГРА 18+

pack

ВАЖНО

!!Акция!!

Alien_RageХит недели

RePack

MK11
pack

Забери бонус

RePack

jed

!!Акция!!

Alien_Rage

RePack

fifa19

RePack

Assassins Creed: Odyssey

RePack

NEED FOR SPEED™ PAYBACK

4 сезон

9 сезон

Бесстыжие 9 сезон

Все сериалы

все сериалы на PB.wtf

RePack

FAR CRY 5
  

Время собирать (Владимир Устюгов) [2014 г., Мелодрама, SATRip] piratbit.pw

Время собирать через торрент piratbit.pw

Размер: 1.05 GB | Добавлен: 6 лет 5 мес. назад | Торрент скачан:447 раз
Скачать  

01-05-2014 21:05 Время собирать Скачать торрент  

Время собиратьГод выпуска: 2014
Страна: Россия
Жанр: Мелодрама
Продолжительность: 01:31:41

Режиссер: Владимир Устюгов

В ролях: Наталия Антонова, Алексей Макаров, Екатерина Волкова, Анастасия Акатова, Анастасия Стежко, Ульяна Урванцева, Марина Федункив

Описание: Машину маму Алю любили в школе, в которой она преподавала физкультуру, но считали "не от мира сего". Маше было обидно - маме столько раз предлагали работу в фитнес-центрах, но она считала, что ее призвание - работа с детьми. Неожиданно появился отец Маши, про которого мама говорила, что он полярник и погиб в экспедиции. Але нечего было противопоставить успешному, щедрому Артему, кроме своей любви. Она смирилась и не возражала против отъезда дочери в Москву. Но в школе, где работала Аля, случился пожар. Нелепая и смешная Аля кинулась спасать учеников, заблокированных огнем и дымом. Спасти смогла, но сама сильно пострадала...

Качество: SATRip
Формат: AVI
Видео кодек: XviD
Аудио кодек: MP3
Видео: MPEG4, XviD, 704x368 (1.913), 25.000 fps, 1 495 Kbps (0.231 bit/pixel)
Аудио: MP3, 48.0 KHz, 2 ch, 128 Kbps, CBR
скриншот   скриншот   скриншот   скриншот   скриншот   скриншот   скриншот   скриншот  

Код:

Формат                                   : AVI
Формат/Информация                        : Audio Video Interleave
Размер файла                             : 1,05 Гбайт
Продолжительность                        : 1 ч. 31 м.
Общий поток                              : 1633 Кбит/сек
Программа кодирования                    : VirtualDubMod 1.5.10.2 (build 2540/release)
Библиотека кодирования                   : VirtualDub build 34703/release

Видео
Идентификатор                            : 0
Формат                                   : MPEG-4 Visual
Профиль формата                          : Advanced Simple@L5
Параметр BVOP формата                    : 2
Параметр QPel формата                    : Нет
Параметр GMC формата                     : Без точки перехода
Параметр матрицы формата                 : Default (MPEG)
Режим смешивания                         : Сжатый битовый поток
Идентификатор кодека                     : XVID
Идентификатор кодека/Подсказка           : XviD
Продолжительность                        : 1 ч. 31 м.
Битрейт                                  : 1495 Кбит/сек
Ширина                                   : 704 пикселя
Высота                                   : 368 пикселей
Соотношение сторон                       : 1,913
Частота кадров                           : 25,000 кадров/сек
Цветовое пространство                    : YUV
Субдискретизация насыщенности            : 4:2:0
Битовая глубина                          : 8 бит
Тип развёртки                            : Прогрессивная
Метод сжатия                             : С потерями
Бит/(Пиксели*Кадры)                      : 0.231
Размер потока                            : 980 Мбайт (92%)
Библиотека кодирования                   : XviD 64

Аудио
Идентификатор                            : 1
Формат                                   : MPEG Audio
Версия формата                           : Version 1
Профиль формата                          : Layer 3
Режим                                    : Joint stereo
Идентификатор кодека                     : 55
Идентификатор кодека/Подсказка           : MP3
Продолжительность                        : 1 ч. 31 м.
Вид битрейта                             : Постоянный
Битрейт                                  : 128 Кбит/сек
Каналы                                   : 2 канала
Частота                                  : 48,0 КГц
Метод сжатия                             : С потерями
Размер потока                            : 83,9 Мбайт (8%)
Выравнивание                             : Соединение по промежуткам
Продолжительность промежутка             : 40  мс. (1,00 видеокадр)
Время предзагрузки промежутка            : 504  мс.
Библиотека кодирования                   : LAME3.90.3


piratbit.pw



Скачать Время собирать через торрент http://pic.kartinco.top/new/img/2014-05/01/xnoj5cei7d76oti5gv5r0lw2w.jpg Скачать фильм Время собирать через торрент бесплантно в хорошем качестве Описание: Машину маму Алю любили в школе, в которой она преподавала физкультуру, но считали "не от мира сего". Маше было обидно - маме ... 9.9 10 13
Info! Золотая раздача, скачанное не засчитывается.
Торрент: Зарегистрирован [2014-05-01 21:05] · скачан: 447 раз
Статус: √ проверено
Размер: 1.05 GB
Как cкачать? Как скачать Время собирать через торрент | qTorrent

% Раздел Тема Автор DL S | L
Наши фильмы, до 2010 [ 697 MB ] Время собирать камни [2005 военный DVDRip] VintMosina Скачать
1 | 0

28-11-2019 20:33  

Отключить всю рекламу на сайте

06-06-2014 18:19 Время собирать Скачать торрент  

193 и ни одного отзыва....piratbit.pw



    Дорогой пользователь! Огромная просьба, поблагодарите релизера, оцените раздачу и оставьте свои комментарий, если Вы скачали Время собирать через торрент бесплатно! Внесите свою лепту в развитие PiratBit!
    Комментировать посты могут только пользователи прошедшие не сложную регистрацию
    Показать сообщения:    

    Время собирать через торрент
    Скачать бесплатно Время собирать
    Время собирать скачать торрент
    Время собирать смотреть онлайн
    Cкачать фильм Время собирать бесплатно
    Время собирать скачать торрент в хорошем качестве
    Время собирать смотреть онлайн бесплатно в хорошем качестве


    Вы не можете начинать темы
    Вы не можете отвечать на сообщения
    Вы не можете редактировать свои сообщения
    Вы не можете удалять свои сообщения
    Вы не можете голосовать в опросах
    Вы не можете прикреплять файлы к сообщениям
    Вы можете скачивать файлы