1 сезон

1 сезон

iTunes

1

iTunes

Кинопоиск HD

iTunes

13

1 сезон

RePack

30

Deluxe

ВАЖНО

ИГРА 18+

pack

RePack

MK11
pack

Легкие деньги

RePack

jed

RePack

fifa19

RePack

RDR2

RePack

NEED FOR SPEED™ PAYBACK

4 сезон

9 сезон

Бесстыжие 9 сезон

Все сериалы

все сериалы на PB.wtf

RePack

FAR CRY 5
  
Magnet ссылка

Нас приняли! / Accepted (Стив Пинк / Steve Pink) [2006, США, комедия, BDRip 1080p,Профессиональный [Дубляж - Лицензия] piratbit.pw

Нас приняли! через торрент piratbit.pw

Размер: 4.23 GB | Добавлен: 7 лет назад | Торрент скачан:64 раза
Скачать  

01-05-2014 17:02 Нас приняли! Скачать торрент  

Нас приняли! / Accepted

Год выпуска: 2006
Страна: США
Жанр: комедия
Продолжительность: 01:33:05
Перевод: Профессиональный [Дубляж - Лицензия]
Субтитры: Нет
Режиссер: Стив Пинк / Steve Pink
В ролях: Джастин Лонг (Bartleby Gaines), Джона Хилл (Sherman Schrader), Адам Хершман (Glen), Коламбус Шорт (Daryl «Hands» Holloway), Мария Тэйер (Rory Thayer), Льюис Блэк (Ben Lewis), Блейк Лайвли (Monica Moreland), Марк Дервин (Jack Gaines), Энн Кьюсак (Diane Gaines), Ханна Маркс (Lizzie Gaines), Робин Тейлор (Abernathy Darwin Dunlap), Сэм Хорриган (Mike Welsh)
Описание:
Выпускник средней школы Бартлби Гейнс получил восьмой отказ о приеме в институт, что, конечно, вряд ли устроит его родителей. К счастью, он не один такой. Несколько друзей-одноклассников стоят перед той же проблемой.
Так как же парень с унылой перспективой сможет успокоить родителей и добиться расположения красотки Моники? Просто. Он откроет свой собственный университет...
Рейтинг
kinopoisk.ru: 6.950 (18 405)
imdb.com: 6.50 (87 340)
MPAA: PG-13 - Детям до 13 лет просмотр не желателен
Качество: BDRip 1080p
Формат: MKV
Видео кодек: AVC
Аудио кодек: AC3
Видео: AVC, 1920x816 (2.35:1), 6134 kbps, 23,976 fps, 0,163 bpp
Аудио: русский / AC3 / 5.1 / 48 kHz / 384 kbps / 16 bit ||
Релиз от: ஐ-Best is the Best-ஐ
General
Unique ID : 202518150047134840158593657195223006199 (0x985B93B2B7C6F7B295A3FBE50A573BF7)
Complete name : F:\Нас приняли!.(2006).HDRip.1080p.NOLIMITS-TEAM.mkv
Format : Matroska
Format version : Version 2
File size : 4.23 GiB
Duration : 1h 33mn
Overall bit rate mode : Variable
Overall bit rate : 6 509 Kbps
Movie name : Rip by NigAndr (NOLIMITS-TEAM.RU)
Encoded date : UTC 2011-06-25 17:05:26
Writing application : mkvmerge v3.2.0 ('Beginnings') built on Feb 12 2010 16:46:17
Writing library : libebml v0.7.9 + libmatroska v0.8.1

Video
ID : 1
Format : AVC
Format/Info : Advanced Video Codec
Format profile : High@L4.1
Format settings, CABAC : Yes
Format settings, ReFrames : 2 frames
Codec ID : V_MPEG4/ISO/AVC
Duration : 1h 33mn
Bit rate mode : Variable
Bit rate : 6 134 Kbps
Maximum bit rate : 15.0 Mbps
Width : 1 920 pixels
Height : 816 pixels
Display aspect ratio : 2.35:1
Original display aspect ratio : 2.35:1
Frame rate : 23.976 fps
Color space : YUV
Chroma subsampling : 4:2:0
Bit depth : 8 bits
Scan type : Progressive
Bits/(Pixel*Frame) : 0.163
Stream size : 3.90 GiB (92%)
Title : Нас приняли! / Accepted (2006) HDDVDRip 1080p от NOLIMITS-TEAM
Writing library : x264 core 115 r1995 c1e60b9
Encoding settings : cabac=1 / ref=1 / deblock=1:0:0 / analyse=0x3:0x3 / me=dia / subme=1 / psy=1 / psy_rd=1.00:0.00 / mixed_ref=0 / me_range=16 / chroma_me=1 / trellis=0 / 8x8dct=1 / cqm=0 / deadzone=21,11 / fast_pskip=1 / chroma_qp_offset=0 / threads=6 / sliced_threads=0 / slices=4 / nr=0 / decimate=1 / interlaced=0 / bluray_compat=1 / constrained_intra=0 / bframes=3 / b_pyramid=0 / b_adapt=1 / b_bias=0 / direct=1 / weightb=1 / open_gop=0 / weightp=1 / keyint=24 / keyint_min=1 / scenecut=40 / intra_refresh=0 / rc_lookahead=0 / rc=abr / mbtree=0 / bitrate=6134 / ratetol=1.0 / qcomp=0.60 / qpmin=0 / qpmax=69 / qpstep=4 / vbv_maxrate=15000 / vbv_bufsize=15000 / nal_hrd=vbr / ip_ratio=1.10 / pb_ratio=1.10 / aq=1:1.00
Language : English
Default : Yes
Forced : No

Audio
ID : 2
Format : AC-3
Format/Info : Audio Coding 3
Mode extension : CM (complete main)
Codec ID : A_AC3
Duration : 1h 33mn
Bit rate mode : Constant
Bit rate : 384 Kbps
Channel(s) : 6 channels
Channel positions : Front: L C R, Side: L R, LFE
Sampling rate : 48.0 KHz
Bit depth : 16 bits
Compression mode : Lossy
Stream size : 256 MiB (6%)
Title : Дубляж (R5)
Language : Russian
Default : Yes
Forced : No

Menu
00:00:00.000 : en:Graduation (Main Titles)
00:04:22.345 : en:Admission Denied
00:10:03.553 : en:Desperate Measures
00:14:46.669 : en:On Campus
00:18:16.295 : en:Finding Faculty
00:22:31.467 : en:Meet the Dean
00:27:08.327 : en:Student Body
00:33:05.734 : en:Welcome to S.H.I.T.
00:38:44.522 : en:Processing a Plan
00:43:48.543 : en:Comprehensive Curriculum
00:49:10.064 : en:The Sister College
00:54:01.655 : en:Course Requirements
00:57:29.729 : en:Gone Too Far
01:02:10.260 : en:Putting In for a Transfer
01:06:48.004 : en:Allegiance in Question
01:08:23.382 : en:Parents' Day
01:15:13.459 : en:'Higher' Education
01:20:57.886 : en:Scholastic Value
01:27:09.892 : en:Disorientation
01:29:07.092 : en:End titles
piratbit.pw



Скачать Нас приняли! через торрент http://i6.imageban.ru/out/2014/05/01/463c58c373591a52d265f3ca8d1e71e8.jpg Скачать фильм Нас приняли! через торрент бесплантно в хорошем качестве Описание: Выпускник средней школы Бартлби Гейнс получил восьмой отказ о приеме в институт, что, конечно, вряд ли устроит его родителей. К ... 9.6 10 5
Info! Золотая раздача, скачанное не засчитывается.
Торрент: Зарегистрирован [2014-05-01 17:17] · скачан: 64 раз
Статус: # сомнительно
Размер: 4.23 GB
Как cкачать? Как скачать Нас приняли! через торрент | UTorrent

% Раздел Тема Автор DL S | L
Фильмы 2006-2008 [ 1.37 GB ] Нас приняли! / Accepted [2006 HDRip лицензия] TekkenxD Скачать
1 | 0
Фильмы 2006-2008 [ 1.45 GB ] Нас приняли! / Accepted [2006 DVDRip лицензия] Anonymous Скачать
1 | 0
Видео для КПК и Смартфонов [ 306 MB ] Нас Приняли / Accepted [2006 пародия DVDRip MVO лицензия] byblackmexx Скачать
1 | 0
Фильмы 2006-2008 [ 1.45 GB ] Нас приняли! / Accepted [2006 ... HDRip] marrio Скачать
1 | 0

28-11-2019 20:33  

Отключить всю рекламу на сайте

01-05-2014 18:00 Нас приняли! Скачать торрент  

Отличный фильм! Однозначно стоит пересмотреть))piratbit.pw



    Дорогой пользователь! Огромная просьба, поблагодарите релизера, оцените раздачу и оставьте свои комментарий, если Вы скачали Нас приняли! через торрент бесплатно! Внесите свою лепту в развитие PiratBit!
    Комментировать посты могут только пользователи прошедшие не сложную регистрацию
    Показать сообщения:    

    Нас приняли! через торрент
    Скачать бесплатно Нас приняли!
    Нас приняли! скачать торрент
    Нас приняли! смотреть онлайн
    Cкачать фильм Нас приняли! бесплатно
    Нас приняли! скачать торрент в хорошем качестве
    Нас приняли! смотреть онлайн бесплатно в хорошем качестве


    Вы не можете начинать темы
    Вы не можете отвечать на сообщения
    Вы не можете редактировать свои сообщения
    Вы не можете удалять свои сообщения
    Вы не можете голосовать в опросах
    Вы не можете прикреплять файлы к сообщениям
    Вы можете скачивать файлы