Ссылка на приватное зеркало нашего сайта всего за 1$. Внимание количество ограничено!!!

2 сезон

iTunes

iTunes

1

iTunes

iTunes

iTunes

WEBRip

iTunes

30
pack

Вам бонус

ВАЖНО

!!Акция!!

Alien_RageХит недели

RePack

Horizon Zero Dawn

ИГРА 18+

pack

RePack

jed

!!Акция!!

Alien_Rage

RePack

fifa19

RePack

Assassins Creed: Odyssey

RePack

NEED FOR SPEED™ PAYBACK

4 сезон

9 сезон

Бесстыжие 9 сезон

Все сериалы

все сериалы на PB.wtf

RePack

FAR CRY 5
  

Приключения Электроника (1-3 серии) (Константин Бромберг) [1979 г., Фантастика, мюзикл, комедия, приключения, семейный, DVDRip] piratbit.pw

Приключения Электроника через торрент piratbit.pw

Размер: 2.63 GB | Добавлен: 6 лет 4 мес. назад | Торрент скачан:664 раза
Скачать  

01-05-2014 11:26 Приключения Электроника Скачать торрент  

Информация о фильме:
Название: Приключения Электроника

Год выпуска: 1979
Страна: СССР
Студия: Гостелерадио, Одесская киностудия
Жанр: Фантастика, мюзикл, комедия, приключения, семейный

Режиссёр: Константин Бромберг
В ролях: Юрий Торсуев, Владимир Торсуев, Василий Скромный, Максим Калинин, Дмитрий Максимов, Евгений Лившиц, Валерия Солуян, Владимир Басов, Николай Караченцов, Николай Гринько

Кол-во серий: 3
Название серий:
1 серия — «Побег»
2 серия — «Тайна 6 „Б“»
3 серия — «Мальчик с собакой»

Продолжительность: 03:19:12
Перевод: Не требуется
Субтитры: Нет

Описание:
Советский ученый создает гениального робота. Это мальчик, который способен решать любые математические задачи, он пишет самые лучшие сочинения и отлично поет! А еще он — точная копия школьника Сережи Сыроежкина. Сообразительный мальчуган быстренько перекладывает все свои обязанности на электронного двойника. Тот делает за него домашние задания, ходит в школу и выполняет хозяйственные дела, которые Сыроежкину поручают родители…


Релиз от: R.G.RealMT

Файл:
Качество: DVDRip
Формат: AVI
Видео кодек: XVID
Аудио кодек: MP3
Видео: 1750 kbps, 720x540, 25 fps
Аудио: 128 kbps, 2 ch, 44,1 khz

Скиншоты:
General
Complete name : D:\Фильмы\720\ELEKTRONIK\ELEKTRONIK 1.avi
Format : AVI
Format/Info : Audio Video Interleave
File size : 962 MiB
Duration : 1h 11mn
Overall bit rate : 1 890 Kbps

Video
ID : 0
Format : MPEG-4 Visual
Format profile : Advanced Simple@L4
Format settings, BVOP : No
Format settings, QPel : No
Format settings, GMC : No warppoints
Format settings, Matrix : Default (H.263)
Codec ID : XVID
Codec ID/Hint : XviD
Duration : 1h 11mn
Bit rate : 1 750 Kbps
Width : 720 pixels
Height : 540 pixels
Display aspect ratio : 4:3
Frame rate : 25.000 fps
Color space : YUV
Chroma subsampling : 4:2:0
Bit depth : 8 bits
Scan type : Progressive
Compression mode : Lossy
Bits/(Pixel*Frame) : 0.180
Stream size : 890 MiB (93%)

Audio
ID : 1
Format : MPEG Audio
Format version : Version 1
Format profile : Layer 3
Codec ID : 55
Codec ID/Hint : MP3
Duration : 1h 11mn
Bit rate mode : Constant
Bit rate : 128 Kbps
Channel count : 2 channels
Sampling rate : 44.1 KHz
Compression mode : Lossy
Stream size : 65.1 MiB (7%)
Alignment : Split accross interleaves
Interleave, duration : 26 ms (0.65 video frame)
piratbit.pw



Скачать Приключения Электроника через торрент http://i55.fastpic.ru/big/2014/0501/bc/043d33ee3d17aefc955137973fc67fbc.gif Скачать фильм Приключения Электроника через торрент бесплантно в хорошем качестве Описание: Советский ученый создает гениального робота. Это мальчик, который способен решать любые математические задачи, он пишет самые ... 10 10 21
Info! Золотая раздача, скачанное не засчитывается.
Торрент: Зарегистрирован [2014-05-01 11:26] · скачан: 664 раз
Статус: √ проверено
Размер: 2.63 GB
Как cкачать? Как скачать Приключения Электроника через торрент | qTorrent

% Раздел Тема Автор DL S | L
Отечественная Поп музыка (сборники) (mp3) [ 67 MB ] VA - Крылатые качели. Песни из телефильма Электроника 2001 / MP3 / 320 kbps / Soundtracks Pop megatoxa Скачать
1 | 0
Рок, Панк, Альтернатива (mp3) [ 682 MB ] Электроников - Дискография 2001-2015 / MP3 / 320 kbps / Pop-Punk Punk Rock Яйцеслав Скачать
1 | 0
Видео для КПК и Смартфонов [ 636 MB ] Электроника [1979 Музыкальный детский 320*240 mp4 DVDRip] Страна Скачать
1 | 0
Детские отечественные фильмы [ 3.15 GB ] Электроника [1979 мюзикл DVDRip Оригинал] кэп Скачать
1 | 0

28-11-2019 20:33  

Отключить всю рекламу на сайте

01-05-2014 12:02 Приключения Электроника Скачать торрент  

Шикарный фильм Детства !!!piratbit.pw



01-05-2014 15:35 Приключения Электроника Скачать торрент  

Дааа.чудо из детства!piratbit.pw



01-05-2014 16:54 Приключения Электроника Скачать торрент  

Ага, я в основном любимые фильмы и рипую. Планирую вот ещё выложить несколько советских мюзиклов. Всех с 1 мая, ТРУД, МИР, МАЙ! Ура Товарищи!!!piratbit.pw



10-09-2018 17:11 Приключения Электроника Скачать торрент  

эх ты детство... мое ты детство... piratbit.pw



    Дорогой пользователь! Огромная просьба, поблагодарите релизера, оцените раздачу и оставьте свои комментарий, если Вы скачали Приключения Электроника через торрент бесплатно! Внесите свою лепту в развитие PiratBit!
    Комментировать посты могут только пользователи прошедшие не сложную регистрацию
    Показать сообщения:    

    Приключения Электроника через торрент
    Скачать бесплатно Приключения Электроника
    Приключения Электроника скачать торрент
    Приключения Электроника смотреть онлайн
    Cкачать фильм Приключения Электроника бесплатно
    Приключения Электроника скачать торрент в хорошем качестве
    Приключения Электроника смотреть онлайн бесплатно в хорошем качестве


    Вы не можете начинать темы
    Вы не можете отвечать на сообщения
    Вы не можете редактировать свои сообщения
    Вы не можете удалять свои сообщения
    Вы не можете голосовать в опросах
    Вы не можете прикреплять файлы к сообщениям
    Вы можете скачивать файлы