1 сезон

1 сезон

iTunes

1

iTunes

Кинопоиск HD

iTunes

13

1 сезон

RePack

30

Deluxe

ВАЖНО

ИГРА 18+

pack

RePack

MK11
pack

Легкие деньги

RePack

jed

RePack

fifa19

RePack

RDR2

RePack

NEED FOR SPEED™ PAYBACK

4 сезон

9 сезон

Бесстыжие 9 сезон

Все сериалы

все сериалы на PB.wtf

RePack

FAR CRY 5
  
Magnet ссылка

Скамейка запасных / The Benchwarmers (Деннис Дуган /Dennis Dugan) [2006 г.,комедия,семейный,спорт,BDRip, Профессиональный многоголосый] piratbit.pw

Скамейка запасных через торрент piratbit.pw

Размер: 1.47 GB | Добавлен: 7 лет назад | Торрент скачан:95 раз
Скачать  

30-04-2014 16:06 Скамейка запасных Скачать торрент  

Скамейка запасных / The BenchwarmersГод выпуска: 2006
Страна: США
Жанр: комедия, семейный, спорт
Продолжительность: 01:25:10
Перевод: Профессиональный многоголосый

Режиссер: Деннис Дуган /Dennis Dugan

Бюджет: $33 000 000
Премьера в мире: 7 апреля 2006



В ролях: Роб Шнайдер /Rob Schneider/, Дэвид Спэйд /David Spade/, Джон Хедер /Jon Heder/, Джон Ловитц /Jon Lovitz/, Крэйг Килборн /Craig Kilborn/, Молли Симс /Molly Sims/ и др

Описание: У Гаса, Ричи и Кларка большие проблемы с балансом желаний и возможностей. Они упертые фанаты бейсбола и мечтают играть сами, однако злая судьба наделила их такой фантастической неуклюжестью и косорукостью, что спортивная карьера для них кажется абсолютно невозможной. Впрочем, если Бог не дал им таланта, это не значит, что он обделил их упорством, смекалкой и толикой везения.
И вот друзья организовывают собственную команду, дабы попробовать пробиться хотя бы в Малую лигу. Это их единственный шанс выбраться со скамейки запасных — и как бы цели героев не расходились с их талантами, парни не намерены его упускать! Что ж, раз в сто лет и палка стреляет, а записные неудачники получают шанс посрамить профи, пожалуй, все же чаще. И, кажется, такой момент как раз наступил!..


Качество: BDRip
Формат: AVI
Видео кодек: XviD
Аудио кодек: AC3
Видео: 720х384, 2085 kbps, 23.976 fps, 0.314
Аудио#1: 48 kHz, 5.1 ch, 384 kbps




General
Complete name : F:\Загрузка\Скамейка запасных.2006.BDRip.avi
Format : AVI
Format/Info : Audio Video Interleave
File size : 1.47 GiB
Duration : 1h 25mn
Overall bit rate : 2 478 Kbps
Writing application : VirtualDubMod 1.5.10.2 (build 2540/release)
Writing library : VirtualDubMod build 2540/release
Comment : BDRip by KAE

Video
ID : 0
Format : MPEG-4 Visual
Format profile : Advanced Simple@L5
Format settings, BVOP : 1
Format settings, QPel : No
Format settings, GMC : No warppoints
Format settings, Matrix : Default (MPEG)
Muxing mode : Packed bitstream
Codec ID : XVID
Codec ID/Hint : XviD
Duration : 1h 25mn
Bit rate : 2 085 Kbps
Width : 720 pixels
Height : 384 pixels
Display aspect ratio : 1.85:1
Frame rate : 23.976 fps
Color space : YUV
Chroma subsampling : 4:2:0
Bit depth : 8 bits
Scan type : Progressive
Compression mode : Lossy
Bits/(Pixel*Frame) : 0.314
Stream size : 1.24 GiB (84%)
Writing library : XviD 1.2.1 (UTC 2008-12-04)

Audio
ID : 1
Format : AC-3
Format/Info : Audio Coding 3
Mode extension : CM (complete main)
Format settings, Endianness : Big
Codec ID : 2000
Duration : 1h 25mn
Bit rate mode : Constant
Bit rate : 384 Kbps
Channel(s) : 6 channels
Channel positions : Front: L C R, Side: L R, LFE
Sampling rate : 48.0 KHz
Bit depth : 16 bits
Compression mode : Lossy
Delay relative to video : 100ms
Stream size : 234 MiB (15%)
Alignment : Split accross interleaves
Interleave, duration : 42 ms (1.00 video frame)
Interleave, preload duration : 500 ms

piratbit.pw



Скачать Скамейка запасных через торрент https://pic1.kartinco.top/images/61/3274a.jpg Скачать фильм Скамейка запасных через торрент бесплантно в хорошем качестве Описание: У Гаса, Ричи и Кларка большие проблемы с балансом желаний и возможностей. Они упертые фанаты бейсбола и мечтают играть сами, ... 10 10 7
Торрент: Зарегистрирован [2014-04-30 16:06] · скачан: 95 раз
Статус: √ проверено
Размер: 1.47 GB
Как cкачать? Как скачать Скамейка запасных через торрент | UTorrent

28-11-2019 20:33  

Отключить всю рекламу на сайте

    Дорогой пользователь! Огромная просьба, поблагодарите релизера, оцените раздачу и оставьте свои комментарий, если Вы скачали Скамейка запасных через торрент бесплатно! Внесите свою лепту в развитие PiratBit!
    Комментировать посты могут только пользователи прошедшие не сложную регистрацию
    Показать сообщения:    

    Скамейка запасных через торрент
    Скачать бесплатно Скамейка запасных
    Скамейка запасных скачать торрент
    Скамейка запасных смотреть онлайн
    Cкачать фильм Скамейка запасных бесплатно
    Скамейка запасных скачать торрент в хорошем качестве
    Скамейка запасных смотреть онлайн бесплатно в хорошем качестве


    Вы не можете начинать темы
    Вы не можете отвечать на сообщения
    Вы не можете редактировать свои сообщения
    Вы не можете удалять свои сообщения
    Вы не можете голосовать в опросах
    Вы не можете прикреплять файлы к сообщениям
    Вы можете скачивать файлы