1 сезон

3 сезон

iTunes

1

iTunes

DUB Netflix

iTunes

13

1 сезон

RePack

30

Deluxe

pack

Легкие деньги

ВАЖНО

ИГРА 18+

pack

RePack

MK11

RePack

jed

RePack

fifa19

RePack

RDR2

RePack

NEED FOR SPEED™ PAYBACK

4 сезон

9 сезон

Бесстыжие 9 сезон

Все сериалы

все сериалы на PB.wtf

RePack

FAR CRY 5

Anonymous, доброй ночи, мы не успеваем до 1 числа собрать деньги на оплату серверов, помогите нам пожалуйста в это трудное время. В качестве благодарности мы отключим Вам всю рекламу на сайте (укажите свой ник в строку Ваше имя)!

×
  
Magnet ссылка

Помпеи: Апокалипсис / Apocalypse Pompeii (Бен Демари / Ben Demaree) [2014, США, боевик, приключения, HDRip,Любительский (одноголосый) [Pashaup] piratbit.pw

Помпеи: Апокалипсис через торрент piratbit.pw

Размер: 1.46 GB | Добавлен: 7 лет 1 мес. назад | Торрент скачан:234 раза
Скачать  

29-04-2014 15:51 Помпеи: Апокалипсис Скачать торрент  

Помпеи: Апокалипсис / Apocalypse Pompeii


Год выпуска: 2014
Страна:США/The Asylum
Жанр:боевик, приключения
Продолжительность:01:27:38
Перевод:Любительский (одноголосый) [Pashaup]
Субтитры: Нет
Режиссер: Бен Демари / Ben Demaree

  • В ролях:

    Эдриан Пол (Jeff Pierce), Jhey Castles (Lynne Pierce), Georgina Beedle (Mykaela Pierce), Джон Рис-Дэвис (Colonel Carlos Dillard), Дилан Вокс (Kal), Дэн Кейд (Cade), Constantine Trendafilov (Gianni), Assen Vukushev (Naveen), Alexandra Petrova-Emisti (Rashida), Yordam Yositov (Rosso), Гарри Аничкин (Italian Colonel), Врунда Патель (Christina)

  • Описание:
    Кто мог предугадать, что это повторится? Вулкан Везувий, некогда погубивший Помпеи, снова проснулся. Бывшему спецназовцу предстоит спасти своих жену и дочь, оказавшихся в ловушке во время извержения.

  • Мировая премьера:18 февраля 2014

      Качество: HDRip
      Формат: AVI
      Видео кодек: XviD
      Аудио кодек:AC3
      Видео: XviD, 720x400 (16:9), 1992 kbps, 23,976 fps, 0,289 bpp
      Аудио: AC3 / 5.1 / 48 kHz / 384 kbps / 16 bit


    Код:

    General
    Complete name                            : D:\Торенты\Apocalypse.Pompeii.2014.L1.HDRip.1.46GB.avi
    Format                                   : AVI
    Format/Info                              : Audio Video Interleave
    File size                                : 1.46 GiB
    Duration                                 : 1h 27mn
    Overall bit rate                         : 2 386 Kbps
    Writing application                      : VirtualDubMod 1.5.10.3 | www.virtualdub-fr.org || (build 2550/release)
    Writing library                          : VirtualDubMod build 2550/release

    Video
    ID                                       : 0
    Format                                   : MPEG-4 Visual
    Format profile                           : Advanced Simple@L5
    Format settings, BVOP                    : 1
    Format settings, QPel                    : No
    Format settings, GMC                     : No warppoints
    Format settings, Matrix                  : Custom
    Codec ID                                 : XVID
    Codec ID/Hint                            : XviD
    Duration                                 : 1h 27mn
    Bit rate                                 : 1 993 Kbps
    Width                                    : 720 pixels
    Height                                   : 400 pixels
    Display aspect ratio                     : 16:9
    Frame rate                               : 23.976 fps
    Color space                              : YUV
    Chroma subsampling                       : 4:2:0
    Bit depth                                : 8 bits
    Scan type                                : Progressive
    Compression mode                         : Lossy
    Bits/(Pixel*Frame)                       : 0.289
    Stream size                              : 1.22 GiB (84%)
    Writing library                          : XviD 73

    Audio
    ID                                       : 1
    Format                                   : AC-3
    Format/Info                              : Audio Coding 3
    Mode extension                           : CM (complete main)
    Codec ID                                 : 2000
    Duration                                 : 1h 27mn
    Bit rate mode                            : Constant
    Bit rate                                 : 384 Kbps
    Channel(s)                               : 6 channels
    Channel positions                        : Front: L C R, Side: L R, LFE
    Sampling rate                            : 48.0 KHz
    Bit depth                                : 16 bits
    Compression mode                         : Lossy
    Stream size                              : 241 MiB (16%)
    Alignment                                : Split accross interleaves
    Interleave, duration                     : 42 ms (1.00 video frame)
    Interleave, preload duration             : 500 ms

    Скриншоты:

    Каталог Новинок (Фильмы-трейлеры, Игры, Сериалы, Мультфильмы)

    © Оформление by Raven
    piratbit.pw



  • Скачать Помпеи: Апокалипсис через торрент https://pic1.kartinco.top/images/61/ordi9.jpg Скачать фильм Помпеи: Апокалипсис через торрент бесплантно в хорошем качестве Описание:Кто мог предугадать, что это повторится? Вулкан Везувий, некогда погубивший Помпеи, снова проснулся. Бывшему спецназовцу предстоит ... 10 10 8
    Торрент: Зарегистрирован [2014-04-29 15:51] · скачан: 234 раз
    Статус: √ проверено
    Размер: 1.46 GB
    Как cкачать? Как скачать Помпеи: Апокалипсис через торрент | UTorrent

    28-11-2019 20:33  

    Отключить всю рекламу на сайте

    29-04-2014 15:55 Помпеи: Апокалипсис Скачать торрент  

    Raven писал(а):

    [qpost=undefined]✦ Страна:США/The Asylum

    Цитата:

    The Asylum ([ə'saɪləm], эсайлэм, в переводе — «лечебница, убежище») — американская киностудия и дистрибьютор, специализирующаяся на низкобюджетных direct-to-video фильмах. Главным образом известна по созданию фильмов, имитирующих ожидаемые блокбастеры. За данной категорией фильмов устоялся термин «мокбастер».

    piratbit.pw



    29-04-2014 15:56 Помпеи: Апокалипсис Скачать торрент  

    Raven писал(а):

    [qpost=undefined]Эдриан Пол

    Когда то был мой любимый актер по сериалу Горец..это ж надо так скатится, чтоб сниматься во всяком д....piratbit.pw



    29-04-2014 16:11 Помпеи: Апокалипсис Скачать торрент  

    он с Невским снимается , это хуже всегоpiratbit.pw



    29-04-2014 16:28 Помпеи: Апокалипсис Скачать торрент  

    zoha09 писал(а):

    он с Невским снимается , это хуже всего

    да уж, хуже не придумаешь :zay:piratbit.pw



    29-04-2014 20:32 Помпеи: Апокалипсис Скачать торрент  

    И это еще на блюрей продают? О_оpiratbit.pw



    05-05-2014 12:35 Помпеи: Апокалипсис Скачать торрент  

    странно... обычно сразу дубляжpiratbit.pw



    08-05-2014 10:42 Помпеи: Апокалипсис Скачать торрент  

    Спасибо за раздачу, посмотрим!!!piratbit.pw



    28-05-2014 08:33 Помпеи: Апокалипсис Скачать торрент  

    Втрой скрин очень порадовал своей графикой")piratbit.pw



      Дорогой пользователь! Огромная просьба, поблагодарите релизера, оцените раздачу и оставьте свои комментарий, если Вы скачали Помпеи: Апокалипсис через торрент бесплатно! Внесите свою лепту в развитие PiratBit!
      Комментировать посты могут только пользователи прошедшие не сложную регистрацию
      Показать сообщения:    

      Помпеи: Апокалипсис через торрент
      Скачать бесплатно Помпеи: Апокалипсис
      Помпеи: Апокалипсис скачать торрент
      Помпеи: Апокалипсис смотреть онлайн
      Cкачать фильм Помпеи: Апокалипсис бесплатно
      Помпеи: Апокалипсис скачать торрент в хорошем качестве
      Помпеи: Апокалипсис смотреть онлайн бесплатно в хорошем качестве


      Вы не можете начинать темы
      Вы не можете отвечать на сообщения
      Вы не можете редактировать свои сообщения
      Вы не можете удалять свои сообщения
      Вы не можете голосовать в опросах
      Вы не можете прикреплять файлы к сообщениям
      Вы можете скачивать файлы