1 сезон

3 сезон

iTunes

1

iTunes

DUB Netflix

iTunes

13

1 сезон

RePack

30

Deluxe

pack

Легкие деньги

ВАЖНО

ИГРА 18+

pack

RePack

MK11

RePack

jed

RePack

fifa19

RePack

RDR2

RePack

NEED FOR SPEED™ PAYBACK

4 сезон

9 сезон

Бесстыжие 9 сезон

Все сериалы

все сериалы на PB.wtf

RePack

FAR CRY 5

Anonymous, доброе утро, мы не успеваем до 1 числа собрать деньги на оплату серверов, помогите нам пожалуйста в это трудное время. В качестве благодарности мы отключим Вам всю рекламу на сайте (укажите свой ник в строку Ваше имя)!

×
  
Magnet ссылка

Опасная игра / Real Playing Game (Тино Наварро / Tino Navarro, David Rebordão) [2013, Португалия, фантастика, боевик, приключения, DVDRip,Любительский (одноголосый)[R.A.I.M] piratbit.pw

Опасная игра через торрент piratbit.pw

Размер: 1.46 GB | Добавлен: 7 лет 1 мес. назад | Торрент скачан:660 раз
Скачать  

26-04-2014 21:04 Опасная игра Скачать торрент  

Опасная игра / Real Playing Game

  • Год выпуска: 2013
  • Страна:Португалия
  • Жанр:фантастика, боевик, приключения
  • Продолжительность:01:38:11
  • Перевод:Любительский (одноголосый)[R.A.I.M]по субтитрам: steelhawk
  • Субтитры: Нет
  • Режиссер: Тино Наварро / Tino Navarro, David Rebordão
  • В ролях:

    Рутгер Хауэр (Steve Battier), Аликс Вилтон Риган (Player #1), Дафна Фернандес (Player #5), Клаудиа Сванн (Player #8), Сорая Чавес (Sarah), Виктория Герра (Driver), Кристофер Го (Player #4), Киэн Бэрри (Young Steve Battier), Педру Гранжер (Player #3), Крис Ташима (GameKeeper), Тино Наварро (Financial Speculator), Дебора Монтейру (Player #9)

    • Описание:
      В не слишком далеком будущем, престарелый мультимиллионер Стив Батьер, который, к тому же, неизлечимо болен, принял предложение компании RPG, которое состояло в том, что группа клиентов получает возможность "обрести молодое тело". В течении 10 часов 10 миллионеров со всего мира окажутся снова молодыми и здоровыми. Но у этой "игры" есть вполне реальные правила - каждый час кто-то из них может умереть.В возрасте 23 лет, Стив готов пойти на все, чтобы сохранить эту вечную молодость...

    Мировая премьера:29 августа 2013

    • Качество: DVDRip
    • Формат: AVI
    • Видео кодек: XviD
    • Аудио кодек:AC3
    • Видео: XviD, 720x304 (2.35:1), 1541 kbps, 25 fps, 0,282 bpp
    • Аудио №1: AC3 / 2.0 / 44 kHz / 192 kbps / 16 bit-Русский
      Аудио №2: AC3 / 5.1 / 44 kHz / 384 kbps / 16 bit-Английский


    Код:

    General
    Complete name                            : D:\Торенты\Real.Playing.Game.2013.DVDRip.L1.1500MB.avi
    Format                                   : AVI
    Format/Info                              : Audio Video Interleave
    Format profile                           : OpenDML
    File size                                : 1.46 GiB
    Duration                                 : 1h 38mn
    Overall bit rate                         : 2 136 Kbps
    Writing application                      : Lavf55.35.101

    Video
    ID                                       : 0
    Format                                   : MPEG-4 Visual
    Format profile                           : Simple@L3
    Format settings, BVOP                    : No
    Format settings, QPel                    : No
    Format settings, GMC                     : No warppoints
    Format settings, Matrix                  : Default (H.263)
    Codec ID                                 : XVID
    Codec ID/Hint                            : XviD
    Duration                                 : 1h 38mn
    Bit rate                                 : 1 542 Kbps
    Width                                    : 720 pixels
    Height                                   : 304 pixels
    Display aspect ratio                     : 2.35:1
    Frame rate                               : 25.000 fps
    Color space                              : YUV
    Chroma subsampling                       : 4:2:0
    Bit depth                                : 8 bits
    Scan type                                : Progressive
    Compression mode                         : Lossy
    Bits/(Pixel*Frame)                       : 0.282
    Stream size                              : 1.06 GiB (72%)
    Writing library                          : XviD 1.1.2 (UTC 2006-11-01)

    Audio #1
    ID                                       : 1
    Format                                   : AC-3
    Format/Info                              : Audio Coding 3
    Mode extension                           : CM (complete main)
    Codec ID                                 : 2000
    Duration                                 : 1h 38mn
    Bit rate mode                            : Constant
    Bit rate                                 : 192 Kbps
    Channel(s)                               : 2 channels
    Channel positions                        : Front: L R
    Sampling rate                            : 44.1 KHz
    Bit depth                                : 16 bits
    Compression mode                         : Lossy
    Stream size                              : 135 MiB (9%)
    Alignment                                : Aligned on interleaves
    Interleave, duration                     : 35 ms (0.87 video frame)

    Audio #2
    ID                                       : 2
    Format                                   : AC-3
    Format/Info                              : Audio Coding 3
    Mode extension                           : CM (complete main)
    Codec ID                                 : 2000
    Duration                                 : 1h 38mn
    Bit rate mode                            : Constant
    Bit rate                                 : 384 Kbps
    Channel(s)                               : 6 channels
    Channel positions                        : Front: L C R, Side: L R, LFE
    Sampling rate                            : 44.1 KHz
    Bit depth                                : 16 bits
    Compression mode                         : Lossy
    Stream size                              : 270 MiB (18%)
    Alignment                                : Aligned on interleaves
    Interleave, duration                     : 35 ms (0.87 video frame)

    Скриншоты:

    Каталог Новинок (Фильмы-трейлеры, Игры, Сериалы, Мультфильмы)

    © Оформление by Raven
    piratbit.pw



  • Скачать Опасная игра через торрент https://pic1.kartinco.top/images/61/roubx.jpg Скачать фильм Опасная игра через торрент бесплантно в хорошем качестве Описание:В не слишком далеком будущем, престарелый мультимиллионер Стив Батьер, который, к тому же, неизлечимо болен, принял предложение ... 9.6 10 17
    Info! Золотая раздача, скачанное не засчитывается.
    Торрент: Зарегистрирован [2014-04-26 21:04] · скачан: 660 раз
    Статус: T временная
    Размер: 1.46 GB
    Как cкачать? Как скачать Опасная игра через торрент | UTorrent

    % Раздел Тема Автор DL S | L
    T Фильмы [HD 720p, 1080p] (Звук Cam, VO, DVO) [ 3.61 GB ] Опасная игра / Real Playing Game [2013 BDRip 720p VO [R.A.I.M.] от R.G. HD-Films Ворон Скачать
    1 | 0

    28-11-2019 20:33  

    Отключить всю рекламу на сайте

    08-05-2014 12:33 Опасная игра Скачать торрент  

    Ну и как фильмец-то, кто посмотрел?piratbit.pw



    11-05-2014 14:53 Опасная игра Скачать торрент  

    фильм хреньpiratbit.pw



      Дорогой пользователь! Огромная просьба, поблагодарите релизера, оцените раздачу и оставьте свои комментарий, если Вы скачали Опасная игра через торрент бесплатно! Внесите свою лепту в развитие PiratBit!
      Комментировать посты могут только пользователи прошедшие не сложную регистрацию
      Показать сообщения:    

      Опасная игра через торрент
      Скачать бесплатно Опасная игра
      Опасная игра скачать торрент
      Опасная игра смотреть онлайн
      Cкачать фильм Опасная игра бесплатно
      Опасная игра скачать торрент в хорошем качестве
      Опасная игра смотреть онлайн бесплатно в хорошем качестве


      Вы не можете начинать темы
      Вы не можете отвечать на сообщения
      Вы не можете редактировать свои сообщения
      Вы не можете удалять свои сообщения
      Вы не можете голосовать в опросах
      Вы не можете прикреплять файлы к сообщениям
      Вы можете скачивать файлы