Ссылка на приватное зеркало всего за 1$. Внимание количество ограничено!!!

iTunes

iTunes

iTunes

1

iTunes

iTunes

iTunes

iTunes

iTunes

30
pack

Новость дня

ВАЖНО

!!Акция!!

Alien_RageХит недели

RePack

Resident Evil 21

ИГРА 18+

pack

RePack

jed

!!Акция!!

Alien_Rage

RePack

fifa19

RePack

Assassins Creed: Odyssey

RePack

NEED FOR SPEED™ PAYBACK

4 сезон

9 сезон

Бесстыжие 9 сезон

Все сериалы

все сериалы на PB.wtf

RePack

FAR CRY 5
  

Атлантический вал / Le mur de l'Atlantique (Марсель Камю) [1970 г., Комедия, военный, DVDRip] DVO "Нота" piratbit.pw

Атлантический вал через торрент piratbit.pw

Размер: 1.37 GB | Добавлен: 6 лет 1 мес. назад | Торрент скачан:32 раза
Скачать  

26-04-2014 20:06 Атлантический вал Скачать торрент  

Атлантический вал / Le mur de l'Atlantique
Год выпуска: 1970
Страна: Франция, Италия Студия: Fono Roma, Les Productions Georges de Beauregard, SNC
Жанр: Комедия, военный
Продолжительность: 01:41:29
Перевод: Профессиональный двухголосый студия "Нота"
Режиссер: Марсель Камю
Продюссер: Жорж де Борежар
Сценарий: Марсель Камю, Марсель Жюллиан, Жак Реми

Премьера в мире: 14 октября 1970


В ролях: Бурвиль (фильм вышел уже после смерти актера), Питер МакЭнери, Софи Демаре, Жан Пуаре, Райнхард Колльдехофф, Сара Франкетти, Пино Карузо, Терри-Томас, Ролан Лезафр, Жак Балютен, Жан-Пьер Золя, Жорж Стаке, Робер Ле Беаль, Жак Пребуа, Билли Кирнс, Уильям Мервин, Питер Майерс, Пьер Деказ, Фернан Гио, Жан Рюпер, Рико Лопес, Джеки Сарду, Ивон Лек, Марсель Гассук, Роже Трапп, Жак Марбёф, Ги Делорм, Антуан Бо, Стефен Ярдли, Билл Хорсли, Джанин Дилл, Джон Эпплер, Роджер Гилло, Джесс Хан, Руди Ленуар, Аннабел Левентон, Норман Митчел, Жан Мулар, Патрик Прежан, Мишель Робен, Энтони Стюарт, Фрэнк Уильямс
Описание: События этой замечательной комедии с участием Бурвиля разворачиваются во время 2-й Мировой войны в Нормандии. Очаровательная дочь хозяина маленького кафе прячет у себя сбитого фашистами английского летчика. Ее отец - простодушный добряк, которого интересуют исключительно дела его кафе, неожиданно для себя становится участником не только забавных приключений, а более того - участником покушения на генерала Роммеля...
Качество: DVDRip
Формат: AVI
Видео кодек: XviD
Аудио кодек: AC3
Видео: Xvid 640x384, 25.00fps, 1 529 Kbps
Аудио#1: Dolby AC3, 48000Hz, stereo, 192kbps Русский
Аудио#2: Dolby AC3, 48000Hz, stereo, 192kbps Французский
Релиз от: grom1601





General
Complete name : I:\Atlanticheskiy.val.1970.XviD.DVDRip.grom1601.avi
Format : AVI
Format/Info : Audio Video Interleave
File size : 1.37 GiB
Duration : 1h 41mn
Overall bit rate : 1 927 Kbps
Writing application : FairUse Wizard -
Writing library : The best and REALLY easy backup tool

Video
ID : 0
Format : MPEG-4 Visual
Format profile : Advanced Simple@L5
Format settings, BVOP : 1
Format settings, QPel : No
Format settings, GMC : No warppoints
Format settings, Matrix : Default (MPEG)
Muxing mode : Packed bitstream
Codec ID : XVID
Codec ID/Hint : XviD
Duration : 1h 41mn
Bit rate : 1 529 Kbps
Width : 640 pixels
Height : 384 pixels
Display aspect ratio : 1.667
Frame rate : 25.000 fps
Color space : YUV
Chroma subsampling : 4:2:0
Bit depth : 8 bits
Scan type : Progressive
Compression mode : Lossy
Bits/(Pixel*Frame) : 0.249
Stream size : 1.08 GiB (79%)
Writing library : XviD 1.2.1 (UTC 2008-12-04)

Audio #1
ID : 1
Format : AC-3
Format/Info : Audio Coding 3
Mode extension : CM (complete main)
Codec ID : 2000
Duration : 1h 41mn
Bit rate mode : Constant
Bit rate : 192 Kbps
Channel(s) : 2 channels
Channel positions : Front: L R
Sampling rate : 48.0 KHz
Bit depth : 16 bits
Compression mode : Lossy
Stream size : 139 MiB (10%)
Alignment : Split accross interleaves
Interleave, duration : 40 ms (1.00 video frame)
Interleave, preload duration : 500 ms

Audio #2
ID : 2
Format : AC-3
Format/Info : Audio Coding 3
Mode extension : CM (complete main)
Codec ID : 2000
Duration : 1h 41mn
Bit rate mode : Constant
Bit rate : 192 Kbps
Channel(s) : 2 channels
Channel positions : Front: L R
Sampling rate : 48.0 KHz
Bit depth : 16 bits
Compression mode : Lossy
Stream size : 139 MiB (10%)
Alignment : Split accross interleaves
Interleave, duration : 40 ms (1.00 video frame)
Interleave, preload duration : 500 ms

piratbit.pw



Скачать Атлантический вал через торрент http://pic.kartinco.top/images/6/999d8.jpg Скачать фильм Атлантический вал через торрент бесплантно в хорошем качестве Описание: События этой замечательной комедии с участием Бурвиля разворачиваются во время 2-й Мировой войны в Нормандии. Очаровательная дочь ... 9.8 10 6
Info! Золотая раздача, скачанное не засчитывается.
Торрент: Зарегистрирован [2014-04-26 20:06] · скачан: 32 раз
Статус: √ проверено
Размер: 1.37 GB
Как cкачать? Как скачать Атлантический вал через торрент | qTorrent

28-11-2019 20:33  

Отключить всю рекламу на сайте

    Дорогой пользователь! Огромная просьба, поблагодарите релизера, оцените раздачу и оставьте свои комментарий, если Вы скачали Атлантический вал через торрент бесплатно! Внесите свою лепту в развитие PiratBit!
    Комментировать посты могут только пользователи прошедшие не сложную регистрацию
    Показать сообщения:    

    Атлантический вал через торрент
    Скачать бесплатно Атлантический вал
    Атлантический вал скачать торрент
    Атлантический вал смотреть онлайн
    Cкачать фильм Атлантический вал бесплатно
    Атлантический вал скачать торрент в хорошем качестве
    Атлантический вал смотреть онлайн бесплатно в хорошем качестве


    Вы не можете начинать темы
    Вы не можете отвечать на сообщения
    Вы не можете редактировать свои сообщения
    Вы не можете удалять свои сообщения
    Вы не можете голосовать в опросах
    Вы не можете прикреплять файлы к сообщениям
    Вы можете скачивать файлы