Ссылка на приватное зеркало нашего сайта всего за 1$. Внимание количество ограничено!!!

2 сезон

iTunes

1 сезон

1

iTunes

iTunes

iTunes

1 сезон

RePack

30

ИГРА 18+

pack

ВАЖНО

!!Акция!!

Alien_RageХит недели

RePack

MK11
pack

Забери бонус

RePack

jed

!!Акция!!

Alien_Rage

RePack

fifa19

RePack

Assassins Creed: Odyssey

RePack

NEED FOR SPEED™ PAYBACK

4 сезон

9 сезон

Бесстыжие 9 сезон

Все сериалы

все сериалы на PB.wtf

RePack

FAR CRY 5
  

Спираль (Андрей Волгин) [2014 г., боевик, HDRip,Лицензия] piratbit.pw

Спираль через торрент piratbit.pw

Размер: 2.15 GB | Добавлен: 6 лет 5 мес. назад | Торрент скачан:1013 раз
Скачать  

24-04-2014 17:33 Спираль Скачать торрент  

Спираль
Год выпуска: 2014
Страна: Россия / Студия «Питон»
Жанр: боевик
Продолжительность: 01:41:30
Тип релиза: Лицензия
Режиссер: Андрей Волгин

В ролях: Константин Крюков, Анатолий Руденко, Вениамин Смехов, Александр Яцко, Никита Высоцкий, Кларисса Барская, Константин Глушков, Владимир Стержаков, Марина Куделинская, Рената Пиотровски

Описание: Главный герой истории — Алексей, талантливый программист из Новосибирска, приезжает в Москву и становится членом закрытого полулегального элитного клуба под названием «Спираль». Как новичку ему крупно везет, и он выигрывает одну экстремальную игру клуба за другой, получая сумасшедшие гонорары. В него влюбляется такая девушка, о какой он даже не мог мечтать.

Но в одночасье красивый мир вокруг него рушится, и он влипает в крупные неприятности — его обвиняют в ограблении банка, любимая девушка не верит в его невиновность, и в довершении всего его пытаются убить…

Качество: HDRip
Формат: AVI
Видео кодек: XviD
Аудио кодек: AC3
Видео: 720x304 (2.37:1), 25 fps, XviD build 50 ~2692 kbps avg, 0.49 bit/pixel
Аудио: 48 kHz, AC3 Dolby Digital, 3/2 (L,C,R,l,r) + LFE ch, ~448 kbps


Общее
Полное имя : H:\кино\Spiral.2014.O.HDRip.avi
Формат : AVI
Формат/Информация : Audio Video Interleave
Профиль формата : OpenDML
Размер файла : 2,15 Гбайт
Продолжительность : 1 ч. 37 м.
Общий поток : 3148 Кбит/сек
Программа кодирования : VirtualDubMod 1.5.10.3 | www.virtualdub-fr.org || (build 2550/release)
Библиотека кодирования : VirtualDubMod build 2550/release

Видео
Идентификатор : 0
Формат : MPEG-4 Visual
Профиль формата : Advanced Simple@L5
Параметр BVOP формата : 2
Параметр QPel формата : Нет
Параметр GMC формата : Без точки перехода
Параметр матрицы формата : Default (H.263)
Идентификатор кодека : XVID
Идентификатор кодека/Подсказка : XviD
Продолжительность : 1 ч. 37 м.
Битрейт : 2687 Кбит/сек
Ширина : 720 пикселей
Высота : 304 пикселя
Соотношение сторон : 2,35:1
Частота кадров : 25,000 кадров/сек
Цветовое пространство : YUV
Субдискретизация насыщенности : 4:2:0
Битовая глубина : 8 бит
Тип развёртки : Прогрессивная
Метод сжатия : С потерями
Бит/(Пиксели*Кадры) : 0.491
Размер потока : 1,83 Гбайт (85%)
Библиотека кодирования : XviD 1.2.1 (UTC 2008-12-04)

Аудио
Идентификатор : 1
Формат : AC-3
Формат/Информация : Audio Coding 3
Расширение режима : CM (complete main)
Параметр Endianness формата : Big
Идентификатор кодека : 2000
Продолжительность : 1 ч. 37 м.
Вид битрейта : Постоянный
Битрейт : 448 Кбит/сек
Каналы : 6 каналов
Расположение каналов : Front: L C R, Side: L R, LFE
Частота : 48,0 КГц
Битовая глубина : 16 бит
Метод сжатия : С потерями
Размер потока : 313 Мбайт (14%)
Выравнивание : Разделение по промежуткам
Продолжительность промежутка : 40 мс. (1,00 видеокадр)
Время предзагрузки промежутка : 500 мс.

piratbit.pw



Скачать Спираль через торрент http://pic.kartinco.top/images/6/dw5ki.jpg Скачать фильм Спираль через торрент бесплантно в хорошем качестве Описание: Главный герой истории — Алексей, талантливый программист из Новосибирска, приезжает в Москву и становится членом закрытого ... 9.7 10 43
Info! Золотая раздача, скачанное не засчитывается.
Торрент: Зарегистрирован [2014-05-01 16:56] · скачан: 1 013 раз
Статус: √ проверено
Размер: 2.15 GB
Как cкачать? Как скачать Спираль через торрент | qTorrent

% Раздел Тема Автор DL S | L
Ужасы, Мистика [ 2.19 GB ] Кодзи Судзуки - Цикл "Звонок" [Андрей Левин 2008 128-192 kbps] Alpatyk Скачать
1 | 0
Зарубежные сериалы [ 7.29 GB ] Спираль / Helix / 1 сезон / 1-13 серии из 13 [2014 WEB-DLRip ] MVO [BaibaKo] bober100 Скачать
1 | 0
Зарубежные сериалы [ 4.45 GB ] Спираль / Engrenages / Сезон: 1 / Серии 1-8 из 8 [2005 HDRip] MVO PROCTOLOG Скачать
1 | 0
Зарубежные сериалы [ 5.29 GB ] Спираль времени / Taimu supairaru / Сезон: 1 / Серии 1-8 из 8 [2014 Япония HDTVRip 720p Любительский GEKADOL Скачать
1 | 0
Зарубежные сериалы [ 17.83 GB ] Спираль / Helix / Сезон: 1 / Серии 1-13 из 13 [2014 WEB-DLRip 720p] MVO GEKADOL Скачать
1 | 0
Зарубежные сериалы [ 22.58 GB ] Спираль / Helix / Сезон: 2 / Серии 1-13 из 13 [2015 WEB-DL 1080p MVO] [BaibaKo] GEKADOL Скачать
1 | 0
Зарубежные сериалы [ 7.88 GB ] Спираль / Helix / Сезон: 2 / Серии 1-13 из 13 [2015 WEB-DLRip MVO] [BaibaKo] GEKADOL Скачать
1 | 0


Последний раз редактировалось: coc900 (2014-05-01 17:30), всего редактировалось 4 раз(а)

28-11-2019 20:33  

Отключить всю рекламу на сайте

24-04-2014 17:37 Спираль Скачать торрент  

Модератору!Уберите пожалуйста смайлик около медиа инфо,или скажите как это сделатьpiratbit.pw


24-04-2014 21:16 Спираль Скачать торрент  

Заценимс...piratbit.pw



01-05-2014 17:01 Спираль Скачать торрент  

Торрент обновлен до качества HDRip (Лицензия)!piratbit.pw



01-05-2014 17:23 Спираль Скачать торрент  

coc900, MediaInfo замени.piratbit.pw



02-05-2014 13:29 Спираль Скачать торрент  

Такой бред этот фильмpiratbit.pw



04-05-2014 11:22 Спираль Скачать торрент  

Ну как же так?Всё жаловались на армянских режиссёров российских фильмов?Ну вот вам,пожалуйста-куда уж "русскей"?Опять- "не шмогла я,ну не шмогла.."? :rofle: Наверное,всё таки балет и чугуний...наше фсё.Пока хватит.piratbit.pw



    Дорогой пользователь! Огромная просьба, поблагодарите релизера, оцените раздачу и оставьте свои комментарий, если Вы скачали Спираль через торрент бесплатно! Внесите свою лепту в развитие PiratBit!
    Комментировать посты могут только пользователи прошедшие не сложную регистрацию
    Показать сообщения:    

    Спираль через торрент
    Скачать бесплатно Спираль
    Спираль скачать торрент
    Спираль смотреть онлайн
    Cкачать фильм Спираль бесплатно
    Спираль скачать торрент в хорошем качестве
    Спираль смотреть онлайн бесплатно в хорошем качестве


    Вы не можете начинать темы
    Вы не можете отвечать на сообщения
    Вы не можете редактировать свои сообщения
    Вы не можете удалять свои сообщения
    Вы не можете голосовать в опросах
    Вы не можете прикреплять файлы к сообщениям
    Вы можете скачивать файлы