Ссылка на приватное зеркало нашего сайта всего за 1$. Внимание количество ограничено!!!

2 сезон

iTunes

1 сезон

1

iTunes

iTunes

iTunes

1 сезон

RePack

30

ИГРА 18+

pack

ВАЖНО

!!Акция!!

Alien_RageХит недели

RePack

MK11
pack

Забери бонус

RePack

jed

!!Акция!!

Alien_Rage

RePack

fifa19

RePack

Assassins Creed: Odyssey

RePack

NEED FOR SPEED™ PAYBACK

4 сезон

9 сезон

Бесстыжие 9 сезон

Все сериалы

все сериалы на PB.wtf

RePack

FAR CRY 5
  

Питер. Лето. Любовь (Андрей Хвостов) [ 2014 , Россия, Великобритания , драма, мелодрама , WEB-DLRip] piratbit.pw

Питер. Лето. Любовь через торрент piratbit.pw

Размер: 1.37 GB | Добавлен: 6 лет 6 мес. назад | Торрент скачан:628 раз
Скачать  

24-04-2014 09:44 Питер. Лето. Любовь Скачать торрент  

Питер. Лето. Любовь
«Белые ночи. Грязные танцы»

Год выпуска: 2014
Страна: Россия, Великобритания
Жанр: драма, мелодрама
Продолжительность: 01:19:40
Перевод: Не требуется
Субтитры: Нет
Режиссер: Андрей Хвостов
Сценарий: Андрей Хвостов, Юлия Мельницкая
Продюсер: Джоэнна Бенс, Федор Друзин, Андрей Хвостов, Михаил Погольша, Владимир Пахомов
Оператор: Родион Жабрев
Композитор: Сергей Евтушенко
В ролях:
Терри Суини (Elliot Wall), Надежда Толубеева (Аня), Константин Малышев (Фёдор), Леонид Мозговой (мастер), Джонатан Бенда (Gordon Wall), Катрин МакДонаф (Emma Wall), Алессандра Джунтини, Николай Куглянт (Олег), Екатерина Тарасова (Света), Елена Симонова (мать Фёдора), Никола Ингрэм (Jen), Адам Локсели
Описание:
Двадцатипятилетний британец Эллиот, бросивший преподавание в школе танцев Оксфорда, решает кардинально изменить свою жизнь. Он отправляется в Санкт-Петербург, где живет его сводный брат Федор, с которым он никогда не виделся.
В Питере Эллиот начинает обучать танцам девушку Федора Аню, которая собирается поступать в Театральную академию. У Эллиота есть неделя, чтобы научить танцам подругу брата и разобраться с собственными чувствами к ней.
Рейтинг
kinopoisk.ru: 6.084 (369)
imdb.com: 6.80 (18)
Качество: WEB-DLRip
Формат: AVI
Видео кодек: XviD
Аудио кодек: AC3
Видео: 1998 Кбит/сек, 720*320 (2,25:1), в 25,000 кадров/сек, MPEG-4 Visual (XviD)
Аудио: 448 Кбит/сек, 48,0 КГц, 16 бит, 2 канала, AC-3
Общее
Полное имя : D:\Фильмы\Питер.Лето.Любовь.avi
Формат : AVI
Формат/Информация : Audio Video Interleave
Размер файла : 1,37 Гбайт
Продолжительность : 1 ч. 19 м.
Общий поток : 2456 Кбит/сек
Программа кодирования : VirtualDubMod 1.5.10.2 (build 2540/release)
Библиотека кодирования : VirtualDubMod build 2540/release

Видео
Идентификатор : 0
Формат : MPEG-4 Visual
Профиль формата : Advanced Simple@L5
Параметр BVOP формата : 2
Параметр QPel формата : Нет
Параметр GMC формата : Без точки перехода
Параметр матрицы формата : Выборочная
Идентификатор кодека : XVID
Идентификатор кодека/Подсказка : XviD
Продолжительность : 1 ч. 19 м.
Битрейт : 1998 Кбит/сек
Ширина : 720 пикселей
Высота : 320 пикселей
Соотношение сторон : 2,25:1
Частота кадров : 25,000 кадров/сек
Цветовое пространство : YUV
Субдискретизация насыщенности : 4:2:0
Битовая глубина : 8 бит
Тип развёртки : Прогрессивная
Метод сжатия : С потерями
Бит/(Пиксели*Кадры) : 0.347
Размер потока : 1,11 Гбайт (81%)
Библиотека кодирования : XviD 1.2.1 (UTC 2008-12-04)

Аудио
Идентификатор : 1
Формат : AC-3
Формат/Информация : Audio Coding 3
Расширение режима : CM (complete main)
Параметр Endianness формата : Big
Идентификатор кодека : 2000
Продолжительность : 1 ч. 19 м.
Вид битрейта : Постоянный
Битрейт : 448 Кбит/сек
Каналы : 2 канала
Расположение каналов : Front: L R
Частота : 48,0 КГц
Битовая глубина : 16 бит
Метод сжатия : С потерями
Размер потока : 255 Мбайт (18%)
Выравнивание : Разделение по промежуткам
Продолжительность промежутка : 40 мс. (1,00 видеокадр)
Время предзагрузки промежутка : 500 мс.

скриншот   скриншот   скриншот   скриншот   скриншот   скриншот   скриншот   скриншот   скриншот   скриншот  

piratbit.pw
KRaven писал(а):

T временная
2 канала



Скачать Питер. Лето. Любовь через торрент http://i1.imageban.ru/out/2014/04/24/85b8fe8e75c433101f80e43e38e46be1.jpg Скачать фильм Питер. Лето. Любовь через торрент бесплантно в хорошем качестве Описание:Двадцаятилетний британец Эллиот, бросивший преподавание в школе танцев Оксфорда, решает кардинально изменить свою жизнь. Он ... 7.7 10 9
Торрент: Зарегистрирован [2014-04-24 09:44] · скачан: 628 раз
Статус: T временная
Размер: 1.37 GB
Как cкачать? Как скачать Питер. Лето. Любовь через торрент | qTorrent



Последний раз редактировалось: GEKADOL (2014-04-24 10:04), всего редактировалось 1 раз

28-11-2019 20:33  

Отключить всю рекламу на сайте

24-04-2014 09:57 Питер. Лето. Любовь Скачать торрент  

опять сюжет о заморском принце и бедной русской девушке sarcastic piratbit.pw



    Дорогой пользователь! Огромная просьба, поблагодарите релизера, оцените раздачу и оставьте свои комментарий, если Вы скачали Питер. Лето. Любовь через торрент бесплатно! Внесите свою лепту в развитие PiratBit!
    Комментировать посты могут только пользователи прошедшие не сложную регистрацию
    Показать сообщения:    

    Питер. Лето. Любовь через торрент
    Скачать бесплатно Питер. Лето. Любовь
    Питер. Лето. Любовь скачать торрент
    Питер. Лето. Любовь смотреть онлайн
    Cкачать фильм Питер. Лето. Любовь бесплатно
    Питер. Лето. Любовь скачать торрент в хорошем качестве
    Питер. Лето. Любовь смотреть онлайн бесплатно в хорошем качестве


    Вы не можете начинать темы
    Вы не можете отвечать на сообщения
    Вы не можете редактировать свои сообщения
    Вы не можете удалять свои сообщения
    Вы не можете голосовать в опросах
    Вы не можете прикреплять файлы к сообщениям
    Вы можете скачивать файлы