1 сезон

1 сезон

iTunes

1

КиноПоиск HD

Кинопоиск HD

iTunes

13

1 сезон

RePack

30

Ultimate

ВАЖНО

ИГРА 18+

pack

RePack

MK11
pack

Легкие деньги

RePack

jed

RePack

fifa19

RePack

RDR2

RePack

NEED FOR SPEED™ PAYBACK

4 сезон

9 сезон

Бесстыжие 9 сезон

Все сериалы

все сериалы на PB.wtf

RePack

FAR CRY 5
  
Magnet ссылка

Спецагент Корки Романо / Corky Romano (Роб Приттс / Rob Pritts) [2001, Комедия, DVDRip] [AVO] (Ю.Живов) piratbit.pw

Спецагент Корки Романо через торрент piratbit.pw

Размер: 1.46 GB | Добавлен: 7 лет назад | Торрент скачан:64 раза
Скачать  

22-04-2014 12:55 Спецагент Корки Романо Скачать торрент  

Спецагент Корки Романо / Corky Romano

Год выпуска: 2001
Страна: США
Жанр: Комедия
Продолжительность: 01:25:51
Перевод: Авторский (одноголосый, закадровый) Ю. Живов
Cубтитры: нет
Оригинальная аудиодорожка: английский

Режиссер: Роб Приттс / Rob Pritts

В ролях: Крис Кэттэн, Винесса Шоу, Питер Фальк, Питер Берг, Крис Пенн, Фред Уорд, Ричард Раундтри, Мэттью Глэйв, Роджер Фэн, Дэйв Шеридан.

Описание: Добродушный помощник ветеринара Корки Романо — сын босса преступной мафии. Правда, он давно потерял связь со своей семьей, потому что не мог приспособиться к их преступной жизни. Теперь же его отец обращается к нему с просьбой.
Дело в том, что ФБР занялось расследованием преступлений их семьи. Отец и брат Корки хотят, чтобы он стал одним из агентов ФБР и подделал связанные с делом улики. Корки соглашается. Один хакер, запуганный семьей Романо, составляет Корки резюме. Перестаравшись, хакер делает из Корки настоящего суперагента ФБР, и теперь Корки должен поддерживать новую репутацию…

Качество: DVDRip
Формат видео: AVI
Видео кодек: XviD
Аудио кодек: AC3
Видео: 720x400 (1.80:1), 23.976 fps, XviD build 50 ~1515 kbps avg, 0.22 bit/pixel
Аудио 1: 48 kHz, AC3 Dolby Digital, 3/2 (L,C,R,l,r) + LFE ch, ~448.00 kbps avg [Живов]
Аудио 2: 48 kHz, AC3 Dolby Digital, 3/2 (L,C,R,l,r) + LFE ch, ~448.00 kbps avg [Оригинал]
General
Complete name : E:\INTERNET\Спецагент Корки Романо.2001.DVDRip.avo.avi
Format : AVI
Format/Info : Audio Video Interleave
File size : 1.46 GiB
Duration : 1h 25mn
Overall bit rate : 2 427 Kbps
Writing application : VirtualDubMod 1.5.10.2 (build 2540/release)
Writing library : VirtualDubMod build 2540/release

Video
ID : 0
Format : MPEG-4 Visual
Format profile : Advanced Simple@L5
Format settings, BVOP : 1
Format settings, QPel : No
Format settings, GMC : No warppoints
Format settings, Matrix : Custom
Codec ID : XVID
Codec ID/Hint : XviD
Duration : 1h 25mn
Bit rate : 1 517 Kbps
Width : 720 pixels
Height : 400 pixels
Display aspect ratio : 16:9
Frame rate : 23.976 fps
Color space : YUV
Chroma subsampling : 4:2:0
Bit depth : 8 bits
Scan type : Progressive
Compression mode : Lossy
Bits/(Pixel*Frame) : 0.220
Stream size : 931 MiB (62%)
Writing library : XviD 1.2.1 (UTC 2008-12-04)

Audio #1
ID : 1
Format : AC-3
Format/Info : Audio Coding 3
Mode extension : CM (complete main)
Codec ID : 2000
Duration : 1h 25mn
Bit rate mode : Constant
Bit rate : 448 Kbps
Channel(s) : 6 channels
Channel positions : Front: L C R, Side: L R, LFE
Sampling rate : 48.0 KHz
Bit depth : 16 bits
Compression mode : Lossy
Stream size : 275 MiB (18%)
Alignment : Split accross interleaves
Interleave, duration : 42 ms (1.00 video frame)
Interleave, preload duration : 500 ms

Audio #2
ID : 2
Format : AC-3
Format/Info : Audio Coding 3
Mode extension : CM (complete main)
Codec ID : 2000
Duration : 1h 25mn
Bit rate mode : Constant
Bit rate : 448 Kbps
Channel(s) : 6 channels
Channel positions : Front: L C R, Side: L R, LFE
Sampling rate : 48.0 KHz
Bit depth : 16 bits
Compression mode : Lossy
Stream size : 275 MiB (18%)
Alignment : Split accross interleaves
Interleave, duration : 42 ms (1.00 video frame)
Interleave, preload duration : 500 ms
скриншот   скриншот   скриншот   скриншот   скриншот   скриншот   скриншот   скриншот   скриншот   скриншот  
piratbit.pw



Скачать Спецагент Корки Романо через торрент http://i56.fastpic.ru/big/2014/0422/43/3085e22a397445f56e45f977ff059a43.jpg Скачать фильм Спецагент Корки Романо через торрент бесплантно в хорошем качестве Описание: Добродушный помощник ветеринара Корки Романо — сын босса преступной мафии. Правда, он давно потерял связь со своей семьей, потому ... 10 10 5
Торрент: Зарегистрирован [2014-04-22 12:55] · скачан: 64 раз
Статус: √ проверено
Размер: 1.46 GB
Как cкачать? Как скачать Спецагент Корки Романо через торрент | UTorrent

28-11-2019 20:33  

Отключить всю рекламу на сайте

    Дорогой пользователь! Огромная просьба, поблагодарите релизера, оцените раздачу и оставьте свои комментарий, если Вы скачали Спецагент Корки Романо через торрент бесплатно! Внесите свою лепту в развитие PiratBit!
    Комментировать посты могут только пользователи прошедшие не сложную регистрацию
    Показать сообщения:    

    Спецагент Корки Романо через торрент
    Скачать бесплатно Спецагент Корки Романо
    Спецагент Корки Романо скачать торрент
    Спецагент Корки Романо смотреть онлайн
    Cкачать фильм Спецагент Корки Романо бесплатно
    Спецагент Корки Романо скачать торрент в хорошем качестве
    Спецагент Корки Романо смотреть онлайн бесплатно в хорошем качестве


    Вы не можете начинать темы
    Вы не можете отвечать на сообщения
    Вы не можете редактировать свои сообщения
    Вы не можете удалять свои сообщения
    Вы не можете голосовать в опросах
    Вы не можете прикреплять файлы к сообщениям
    Вы можете скачивать файлы