Ссылка на приватное зеркало всего за 1$. Внимание количество ограничено!!!

OK

1+1

iTunes

мы

OK

1

WEB-DLRip

Джокер

Пифагор

Ведьмак / The Witcher сериал

Лицензия

ПШазам

ОК

Оно 2

iTunes

30
pack

Вам бонус

ВАЖНО

!!Акция!!

Alien_RageХит недели

RePack

Resident Evil 21

ИГРА 18+

pack

RePack

jed

!!Акция!!

Alien_Rage

RePack

fifa19

RePack

Assassins Creed: Odyssey

RePack

NEED FOR SPEED™ PAYBACK

4 сезон

9 сезон

Бесстыжие 9 сезон

Все сериалы

все сериалы на PB.wtf

RePack

FAR CRY 5
  

Прошлым летом в Чулимске (Виктор Демент) [2014 г., драма, HDTVRip] piratbit.pw

Прошлым летом в Чулимске через торрент piratbit.pw

Размер: 1.37 GB | Добавлен: 5 лет 8 мес. назад | Торрент скачан:938 раз
Скачать  

20-04-2014 15:31 Прошлым летом в Чулимске Скачать торрент  

Прошлым летом в Чулимске

Год выпуска: 2014
Страна: Россия
Жанр: драма
Перевод: Оригинал
Продолжительность: 01:25:35

Режиссер: Виктор Демент
Продюссер: Наталия Будкина, Дмитрий Клепацкий
Сценарий: Виктор Демент, Александр Вампилов



В ролях: Сергей Безруков, Мария Поезжаева, Николай Клямчук, Анна Невская, Александр Самойленко

Описание: Жизнь небольшого таежного городка Чулимска вращается вокруг маленького буфета в котором работает молодая девушка Валентина. Валентина влюблена в следователя Шаманова, закрытого, строгого, но обаятельного мужчину, который недавно приехал в Чулимск.Несмотря на любовные отношения Шаманова с аптекаршей Зиной и его зрелый возраст, Валентина находит в себе мужество признаться Шаманову в любви. До этого момента никогда не замечавший красоту и уникальность Валентины, Шаманов вдруг осознаёт, что эта милая, скромная девушка и есть его счастье...

Качество: HDTVRip
Формат: AVI
Видео кодек: XviD
Аудио кодек: AC3
Видео: 720x400 (1.80:1), 25 fps, XviD MPEG-4 ~2038 kbps avg, 0.28 bit/pixel
Аудио: 48 kHz, AC3 Dolby Digital, 2/0 (L,R) ch, ~224 kbps
General
Complete name : /home/sb753/files/Proshlym.letom.v.Chulimske.2014.O.HDTVRip.1400Mb.avi
Format : AVI
Format/Info : Audio Video Interleave
File size : 1.37 GiB
Duration : 1h 26mn
Overall bit rate : 2 272 Kbps
Writing application : VirtualDubMod 1.5.10.3 | www.virtualdub-fr.org || (build 2550/release)
Writing library : VirtualDubMod build 2550/release

Video
ID : 0
Format : MPEG-4 Visual
Format profile : Advanced Simple@L5
Format settings, BVOP : 1
Format settings, QPel : No
Format settings, GMC : No warppoints
Format settings, Matrix : Default (MPEG)
Muxing mode : Packed bitstream
Codec ID : XVID
Codec ID/Hint : XviD
Duration : 1h 26mn
Bit rate : 2 038 Kbps
Width : 720 pixels
Height : 400 pixels
Display aspect ratio : 16:9
Frame rate : 25.000 fps
Color space : YUV
Chroma subsampling : 4:2:0
Bit depth : 8 bits
Scan type : Progressive
Compression mode : Lossy
Bits/(Pixel*Frame) : 0.283
Stream size : 1.23 GiB (90%)
Writing library : XviD 1.2.1 (UTC 2008-12-04)

Audio
ID : 1
Format : AC-3
Format/Info : Audio Coding 3
Mode extension : CM (complete main)
Format settings, Endianness : Big
Codec ID : 2000
Duration : 1h 26mn
Bit rate mode : Constant
Bit rate : 224 Kbps
Channel(s) : 2 channels
Channel positions : Front: L R
Sampling rate : 48.0 KHz
Bit depth : 16 bits
Compression mode : Lossy
Stream size : 138 MiB (10%)
Alignment : Split accross interleaves
Interleave, duration : 40 ms (1.00 video frame)
Interleave, preload duration : 500 ms
piratbit.pw



Скачать Прошлым летом в Чулимске через торрент http://pic.kartinco.top/images/6/mh3zn.jpg Скачать фильм Прошлым летом в Чулимске через торрент бесплантно в хорошем качестве Описание: Жизнь небольшого таежного городка Чулимска вращается вокруг маленького буфета в котором работает молодая девушка Валентина. ... 9.9 10 23
Торрент: Зарегистрирован [2014-04-20 15:31] · скачан: 938 раз
Статус: √ проверено
Размер: 1.37 GB
Как cкачать? Как скачать Прошлым летом в Чулимске через торрент | qTorrent

% Раздел Тема Автор DL S | L
Наши фильмы (HD, WEB-DL 720p, 1080p) [ 3.88 GB ] Прошлым летом в Чулимске [2013 HDTV 1080p ] Ворон Скачать
1 | 0

28-11-2019 20:33  

Отключить всю рекламу на сайте

    Дорогой пользователь! Огромная просьба, поблагодарите релизера, оцените раздачу и оставьте свои комментарий, если Вы скачали Прошлым летом в Чулимске через торрент бесплатно! Внесите свою лепту в развитие PiratBit!
    Комментировать посты могут только пользователи прошедшие не сложную регистрацию
    Показать сообщения:    

    Прошлым летом в Чулимске через торрент
    Скачать бесплатно Прошлым летом в Чулимске
    Прошлым летом в Чулимске скачать торрент
    Прошлым летом в Чулимске смотреть онлайн
    Cкачать фильм Прошлым летом в Чулимске бесплатно
    Прошлым летом в Чулимске скачать торрент в хорошем качестве
    Прошлым летом в Чулимске смотреть онлайн бесплатно в хорошем качестве


    Вы не можете начинать темы
    Вы не можете отвечать на сообщения
    Вы не можете редактировать свои сообщения
    Вы не можете удалять свои сообщения
    Вы не можете голосовать в опросах
    Вы не можете прикреплять файлы к сообщениям
    Вы можете скачивать файлы