Ссылка на приватное зеркало нашего сайта всего за 1$. Внимание количество ограничено!!!

2 сезон

iTunes

1 сезон

1

iTunes

iTunes

iTunes

1 сезон

RePack

30

ИГРА 18+

pack

ВАЖНО

!!Акция!!

Alien_RageХит недели

RePack

MK11
pack

Забери бонус

RePack

jed

!!Акция!!

Alien_Rage

RePack

fifa19

RePack

Assassins Creed: Odyssey

RePack

NEED FOR SPEED™ PAYBACK

4 сезон

9 сезон

Бесстыжие 9 сезон

Все сериалы

все сериалы на PB.wtf

RePack

FAR CRY 5
  

Дубровский (Александр Вартанов, Кирилл Михановский) [2014 г., Драма, BDRip-AVC] [Лицензия] piratbit.pw

Дубровский через торрент piratbit.pw

Размер: 2.18 GB | Добавлен: 6 лет 6 мес. назад | Торрент скачан:549 раз
Скачать  

17-04-2014 16:12 Дубровский Скачать торрент  

Дубровский
Год выпуска: 2014
Страна: Россия / Твинди
Жанр: Драма
Продолжительность: 02:05:14
Субтитры: Русские (форс.)

Режиссер: Александр Вартанов, Кирилл Михановский



В ролях: Данила Козловский, Клавдия Коршунова, Юрий Цурило, Александр Мезенцев, Игорь Гордин, Дмитрий Поднозов, Елена Дудина, Евгений Вакунов, Артем Кобзев, Любовь Сергеева

Описание: Владимир Дубровский — успешный столичный юрист и завсегдатай модных клубов, Маша Троекурова — выпускница английского колледжа и нежная дочь… Хозяева собственных судеб, они едва ли похожи на героев Пушкина. Но внезапная ссора их отцов решительно меняет жизнь Владимира и Маши — они погружаются в реальность, где действуют совсем другие законы…

Качество: BDRip-AVC
Формат: MKV
Видео кодек: MPEG4
Аудио кодек: AC3
Видео: 960x518 (1.85:1), 24.000 fps, 2418 Кbps, 1944 bit/pixel
Аудио: 48 kHz, AC3 Dolby Digital, 3/2 (L,C,R,l,r) + LFE ch, 448.00 kbps

Релиз группы:
Автор рипа: potroks
Общее
Уникальный идентификатор : 184060351896084550367623502459981736963 (0x8A78BBFCFE210C16BCB25402EBE72C03)
Полное имя : Dubrovskiy.2014.RUS.BDRip.x264.-HELLYWOOD.mkv
Формат : Matroska
Версия формата : Version 4 / Version 2
Размер файла : 2,18 Гбайт
Продолжительность : 2 ч. 10 м.
Общий поток : 2393 Кбит/сек
Название фильма : HELLYWOOD - rip by potroks
Дата кодирования : UTC 2014-04-17 15:46:21
Программа кодирования : mkvmerge v5.9.0 ('On The Loose') built on Dec 15 2012 16:39:58
Библиотека кодирования : libebml v1.3.0 + libmatroska v1.4.0

Видео
Идентификатор : 1
Формат : AVC
Формат/Информация : Advanced Video Codec
Профиль формата : High@L4.1
Параметр CABAC формата : Да
Параметр ReFrames формата : 12 кадров
Идентификатор кодека : V_MPEG4/ISO/AVC
Продолжительность : 2 ч. 10 м.
Битрейт : 1944 Кбит/сек
Ширина : 960 пикселей
Высота : 518 пикселей
Соотношение сторон : 1,85:1
Режим частоты кадров : Постоянный
Частота кадров : 24,000 кадра/сек
Цветовое пространство : YUV
Субдискретизация насыщенности : 4:2:0
Битовая глубина : 8 бит
Тип развёртки : Прогрессивная
Бит/(Пиксели*Кадры) : 0.163
Размер потока : 1,73 Гбайт (79%)
Заголовок : Дубровский
Библиотека кодирования : x264 core 130 r2273 b3065e6
Настройки программы : cabac=1 / ref=12 / deblock=1:-2:-2 / analyse=0x3:0x133 / me=umh / subme=11 / psy=1 / psy_rd=1.03:0.00 / mixed_ref=1 / me_range=32 / chroma_me=1 / trellis=2 / 8x8dct=1 / cqm=0 / deadzone=21,11 / fast_pskip=0 / chroma_qp_offset=-2 / threads=9 / lookahead_threads=6 / sliced_threads=0 / nr=0 / decimate=0 / interlaced=0 / bluray_compat=0 / constrained_intra=0 / bframes=13 / b_pyramid=2 / b_adapt=2 / b_bias=0 / direct=3 / weightb=1 / open_gop=0 / weightp=2 / keyint=250 / keyint_min=23 / scenecut=40 / intra_refresh=0 / rc_lookahead=60 / rc=2pass / mbtree=0 / bitrate=1944 / ratetol=1.0 / qcomp=0.70 / qpmin=0 / qpmax=69 / qpstep=4 / cplxblur=20.0 / qblur=0.5 / vbv_maxrate=20000 / vbv_bufsize=20000 / nal_hrd=none / ip_ratio=1.35 / pb_ratio=1.25 / aq=1:0.80
Язык : Russian
Default : Да
Forced : Нет

Аудио
Идентификатор : 2
Формат : AC-3
Формат/Информация : Audio Coding 3
Расширение режима : CM (complete main)
Параметр Endianness формата : Big
Идентификатор кодека : A_AC3
Продолжительность : 2 ч. 10 м.
Вид битрейта : Постоянный
Битрейт : 448 Кбит/сек
Каналы : 6 каналов
Расположение каналов : Front: L C R, Side: L R, LFE
Частота : 48,0 КГц
Битовая глубина : 16 бит
Метод сжатия : С потерями
Размер потока : 418 Мбайт (19%)
Заголовок : DD 5.1 @ 448 kbps
Язык : Russian
Default : Да
Forced : Нет

Текст
Идентификатор : 3
Формат : UTF-8
Идентификатор кодека : S_TEXT/UTF8
Идентификатор кодека/Информация : UTF-8 Plain Text
Заголовок : форс.
Язык : Russian
Default : Да
Forced : Нет

Меню
00:00:00.000 : :Chapter 01
00:01:54.291 : :Chapter 02
00:14:32.875 : :Chapter 03
00:27:59.333 : :Chapter 04
00:43:19.291 : :Chapter 05
01:00:07.625 : :Chapter 06
01:15:44.833 : :Chapter 07
01:33:29.291 : :Chapter 08
01:52:33.875 : :Chapter 09
piratbit.pw



Скачать Дубровский через торрент http://i60.fastpic.ru/big/2014/0417/7f/4f8d785474292f3671d6c12866793b7f.png Скачать фильм Дубровский через торрент бесплантно в хорошем качестве Описание: Владимир Дубровский — успешный столичный юрист и завсегдатай модных клубов, Маша Троекурова — выпускница английского колледжа и ... 8.9 10 10
Торрент: Зарегистрирован [2014-04-17 16:12] · скачан: 549 раз
Статус: √ проверено
Размер: 2.18 GB
Как cкачать? Как скачать Дубровский через торрент | qTorrent

% Раздел Тема Автор DL S | L
Наши сериалы [ 9.39 GB ] Досье а Дубровского [1999 Остросюжетный DVDRip] Оригинал Бумер Скачать
1 | 0
Наши новые фильмы 2014 [ 2.06 GB ] Дубровский [2014 Россия DVDRip] Ворон Скачать
1 | 0
Наши фильмы (Blu-ray, BD-Remux, HDDVD) [ 25.17 GB ] Дубровский [2014 Blu-ray Оригинал] Бумер Скачать
1 | 0
Наши фильмы (Blu-ray, BD-Remux, HDDVD) [ 21.59 GB ] Дубровский [2014 BD-Remux Оригинал] Бумер Скачать
1 | 0
Наши новые фильмы 2014 [ 2.18 GB ] Дубровский [2014 HDRip-AVC] от R.G. PiratFilms White Smoke Скачать
1 | 0
Наши фильмы (HD, WEB-DL 720p, 1080p) [ 11.97 GB ] Дубровский [2014 BDRip 1080p Оригинал] от R.G. PiratFilms Pavlin Скачать
1 | 0
Наши новые фильмы 2014 [ 1.37 GB ] Дубровский [2014 BDRip] [] Cталин Скачать
1 | 0

28-11-2019 20:33  

Отключить всю рекламу на сайте

18-04-2014 04:07 Дубровский Скачать торрент  

конец фильма не понравился.посмотреть можно раз ,не более.piratbit.pw



    Дорогой пользователь! Огромная просьба, поблагодарите релизера, оцените раздачу и оставьте свои комментарий, если Вы скачали Дубровский через торрент бесплатно! Внесите свою лепту в развитие PiratBit!
    Комментировать посты могут только пользователи прошедшие не сложную регистрацию
    Показать сообщения:    

    Дубровский через торрент
    Скачать бесплатно Дубровский
    Дубровский скачать торрент
    Дубровский смотреть онлайн
    Cкачать фильм Дубровский бесплатно
    Дубровский скачать торрент в хорошем качестве
    Дубровский смотреть онлайн бесплатно в хорошем качестве


    Вы не можете начинать темы
    Вы не можете отвечать на сообщения
    Вы не можете редактировать свои сообщения
    Вы не можете удалять свои сообщения
    Вы не можете голосовать в опросах
    Вы не можете прикреплять файлы к сообщениям
    Вы можете скачивать файлы