1 сезон

3 сезон

iTunes

1

iTunes

DUB Netflix

iTunes

13

1 сезон

RePack

30

Deluxe

pack

Легкие деньги

ВАЖНО

ИГРА 18+

pack

RePack

MK11

RePack

jed

RePack

fifa19

RePack

RDR2

RePack

NEED FOR SPEED™ PAYBACK

4 сезон

9 сезон

Бесстыжие 9 сезон

Все сериалы

все сериалы на PB.wtf

RePack

FAR CRY 5

Anonymous, добрый вечер, мы не успеваем до 1 числа собрать деньги на оплату серверов, помогите нам пожалуйста в это трудное время. В качестве благодарности мы отключим Вам всю рекламу на сайте (укажите свой ник в строку Ваше имя)!

×
  
Magnet ссылка

Изгой / The Outsider (Брайан А Миллер / Brian A Miller) [2014, США, боевик, триллер, драма, HDRip,Любительский (двухголосый)[den904, DeadSno] piratbit.pw

Изгой через торрент piratbit.pw

Размер: 1.42 GB | Добавлен: 7 лет 2 мес. назад | Торрент скачан:598 раз
Скачать  

16-04-2014 22:04 Изгой Скачать торрент  

Изгой / The Outsider

    «Outgunned. Outnumbered. Out for blood»
    
  • Год выпуска: 2014    
  • Страна:США    
  • Жанр:боевик, триллер, драма, криминал, детектив    
  • Продолжительность:01:34:00    
  • Перевод:Любительский (двухголосый)[den904, DeadSno]     
  • Субтитры: Нет
        
  • Режиссер: Брайан А Миллер / Brian A Miller     
  • В ролях:    
        
    Джейсон Патрик (Detective Klein), Крэйг Фэйрбрасс (Lex), Джеймс Каан (Schuuster), Шеннон Элизабет (Margo), Бриттни Элгер (Girl 1), Джонни Месснер (Ricky), Мелисса Ордвэй (Samantha), Уильям Деври (Nick Miller), Брайан А Миллер (Dr. Holden), Грег Спролс (Gunman 2), Челси Брюленд (Marissa), Уильям Хейден (Main gunman)
        
    • Описание:    
      Узнав, что его дочь погибла при невыясненных обстоятельствах, профессиональный наемник Лекс Уолкер отправляется в Лос Анджелес, чтобы найти и покарать тех, кто причастен к ее смерти. Горе тем, кто встанет у него на пути...
          

        
    Мировая премьера:11 марта 2014    
        
    • Качество: HDRip    
    • Формат: AVI     
    • Видео кодек: XviD     
    • Аудио кодек:AC3     
    • Видео: XviD, 720x304 (2.35:1), 1712 kbps, 23,976 fps, 0,326 bpp     
    • Аудио: AC3 / 5.1 / 48 kHz / 448 kbps / 16 bit     
        
        
        

    Код:

        
    General    
    Complete name                            : D:\Торенты\The.Outsider.L2.2014.HDRip.avi    
    Format                                   : AVI    
    Format/Info                              : Audio Video Interleave    
    File size                                : 1.42 GiB    
    Duration                                 : 1h 34mn    
    Overall bit rate                         : 2 169 Kbps    
    Writing application                      : VirtualDubMod 1.5.10.3 | www.virtualdub-fr.org || (build 2550/release)    
    Writing library                          : VirtualDubMod build 2550/release    
        
    Video    
    ID                                       : 0    
    Format                                   : MPEG-4 Visual    
    Format profile                           : Advanced Simple@L5    
    Format settings, BVOP                    : 1    
    Format settings, QPel                    : No    
    Format settings, GMC                     : No warppoints    
    Format settings, Matrix                  : Custom    
    Codec ID                                 : XVID    
    Codec ID/Hint                            : XviD    
    Duration                                 : 1h 34mn    
    Bit rate                                 : 1 712 Kbps    
    Width                                    : 720 pixels    
    Height                                   : 304 pixels    
    Display aspect ratio                     : 2.35:1    
    Frame rate                               : 23.976 fps    
    Color space                              : YUV    
    Chroma subsampling                       : 4:2:0    
    Bit depth                                : 8 bits    
    Scan type                                : Progressive    
    Compression mode                         : Lossy    
    Bits/(Pixel*Frame)                       : 0.326    
    Stream size                              : 1.12 GiB (79%)    
    Writing library                          : XviD 73    
        
    Audio    
    ID                                       : 1    
    Format                                   : AC-3    
    Format/Info                              : Audio Coding 3    
    Mode extension                           : CM (complete main)    
    Codec ID                                 : 2000    
    Duration                                 : 1h 34mn    
    Bit rate mode                            : Constant    
    Bit rate                                 : 448 Kbps    
    Channel(s)                               : 6 channels    
    Channel positions                        : Front: L C R, Side: L R, LFE    
    Sampling rate                            : 48.0 KHz    
    Bit depth                                : 16 bits    
    Compression mode                         : Lossy    
    Stream size                              : 301 MiB (21%)    
    Alignment                                : Split accross interleaves    
    Interleave, duration                     : 42 ms (1.00 video frame)    
    Interleave, preload duration             : 500 ms    
        
        

        
        Скриншоты:    
        
        Каталог Новинок (Фильмы-трейлеры, Игры, Сериалы, Мультфильмы)     

    © Оформление by Raven    
        
    piratbit.pw



  • Скачать Изгой через торрент https://pic1.kartinco.top/images/61/zt2i1.jpg Скачать фильм Изгой через торрент бесплантно в хорошем качестве Описание:    Узнав, что его дочь погибла при невыясненных обстоятельствах, наемник Лекс Уолкер отправляется в Лос ... 9.4 10 20
    Торрент: Зарегистрирован [2014-04-16 22:04] · скачан: 598 раз
    Статус: T временная
    Размер: 1.42 GB
    Как cкачать? Как скачать Изгой через торрент | UTorrent

    28-11-2019 20:33  

    Отключить всю рекламу на сайте

    17-04-2014 05:58 Изгой Скачать торрент  

    фильм пустой, ибо все актриссы "ничетак" "ябвдул"))piratbit.pw



      Дорогой пользователь! Огромная просьба, поблагодарите релизера, оцените раздачу и оставьте свои комментарий, если Вы скачали Изгой через торрент бесплатно! Внесите свою лепту в развитие PiratBit!
      Комментировать посты могут только пользователи прошедшие не сложную регистрацию
      Показать сообщения:    

      Изгой через торрент
      Скачать бесплатно Изгой
      Изгой скачать торрент
      Изгой смотреть онлайн
      Cкачать фильм Изгой бесплатно
      Изгой скачать торрент в хорошем качестве
      Изгой смотреть онлайн бесплатно в хорошем качестве


      Вы не можете начинать темы
      Вы не можете отвечать на сообщения
      Вы не можете редактировать свои сообщения
      Вы не можете удалять свои сообщения
      Вы не можете голосовать в опросах
      Вы не можете прикреплять файлы к сообщениям
      Вы можете скачивать файлы