Ссылка на приватное зеркало нашего сайта всего за 1$. Внимание количество ограничено!!!

2 сезон

iTunes

1 сезон

1

iTunes

iTunes

iTunes

1 сезон

RePack

30

ИГРА 18+

pack

ВАЖНО

!!Акция!!

Alien_RageХит недели

RePack

MK11
pack

Забери бонус

RePack

jed

!!Акция!!

Alien_Rage

RePack

fifa19

RePack

Assassins Creed: Odyssey

RePack

NEED FOR SPEED™ PAYBACK

4 сезон

9 сезон

Бесстыжие 9 сезон

Все сериалы

все сериалы на PB.wtf

RePack

FAR CRY 5
  

Дубровский (Александр Вартанов, Кирилл Михановский) [2014 г., драма, HDRip-AVC] от R.G. PiratFilms piratbit.pw

Дубровский через торрент piratbit.pw

Размер: 2.18 GB | Добавлен: 6 лет 6 мес. назад | Торрент скачан:103 раза
Скачать  

15-04-2014 16:47 Дубровский Скачать торрент  

Год выпуска: 2014
Страна: Россия
Жанр: драма
Продолжительность: 02:10:27

Режиссер: Александр Вартанов, Кирилл Михановский

В ролях: Данила Козловский, Клавдия Коршунова, Юрий Цурило, Александр Мезенцев, Игорь Гордин, Дмитрий Поднозов, Елена Дудина, Евгений Вакунов, Артем Кобзев, Любовь Сергеева

Описание: Владимир Дубровский — успешный столичный юрист и завсегдатай модных клубов, Маша Троекурова — выпускница английского колледжа и нежная дочь… Хозяева собственных судеб, они едва ли похожи на героев Пушкина. Но внезапная ссора их отцов решительно меняет жизнь Владимира и Маши — они погружаются в реальность, где действуют совсем другие законы…

Качество: HDRip-AVC
Формат: MKV
Видео кодек: AVC
Аудио кодек: AC3
Видео: AVC, 1024x550 (1.862), 24.000 fps, 1 940 Kbps (0.144 bit/pixel)
Аудио: AC-3, 48.0 KHz, 6 ch, 448 Kbps, CBR
Релиз от: Рип by White Smoke

Код:

---Information] [15.04.2014 3:03:00] x264 [info]: frame I:45    Avg QP:15.65  size: 61537  PSNR Mean Y:48.72 U:52.78 V:52.62 Avg:49.37 Global:48.08
---[Information] [15.04.2014 3:03:00] x264 [info]: frame P:567   Avg QP:18.71  size: 19548  PSNR Mean Y:46.40 U:50.82 V:50.49 Avg:47.09 Global:46.08
---[Information] [15.04.2014 3:03:00] x264 [info]: frame B:1938  Avg QP:20.12  size:  6091  PSNR Mean Y:46.03 U:50.45 V:50.19 Avg:46.72 Global:45.64
---[Information] [15.04.2014 3:03:00] x264 [info]: consecutive B-frames:  4.2%  2.6%  7.5% 23.2% 16.1% 27.3%  8.0%  6.0%  3.2%  1.6%  0.4%

Общее
Уникальный идентификатор         : 238766142039596809203682715227774247132 (0xB3A0AFAF20B4E6B7B2F167E1DA27E0DC)
Полное имя                       : E:\Games\Dubrovskiy.2014.HDRip-AVC.by.White Smoke.R.G. PiratFilms.mkv
Формат                           : Matroska
Размер файла                     : 2,18 Гбайт
Продолжительность                : 2 ч. 10 м.
Общий поток                      : 2388 Кбит/сек
Название фильма                  : Dubrovskiy.2014.HDRip-AVC.by.White Smoke.R.G. PiratFilms.mkv
Дата кодирования                 : UTC 2014-04-15 16:17:30
Программа кодирования            : mkvmerge v6.8.0 ('Theme for Great Cities') 64bit built on Mar  2 2014 21:34:26
Библиотека кодирования           : libebml v1.3.0 + libmatroska v1.4.1

Видео
Идентификатор                    : 1
Формат                           : AVC
Формат/Информация                : Advanced Video Codec
Профиль формата                  : High@L4.1
Параметр CABAC формата           : Да
Параметр ReFrames формата        : 10 кадры
Идентификатор кодека             : V_MPEG4/ISO/AVC
Продолжительность                : 2 ч. 10 м.
Битрейт                          : 1940 Кбит/сек
Ширина                           : 1024 пикс.
Высота                           : 550 пикс.
Соотношение сторон               : 1,862
Частота кадров                   : 24,000 кадр/сек
Цветовое пространство            : YUV
Подвыборка цветности             : 4:2:0
Битовая глубина                  : 8 бит
Тип развёртки                    : Прогрессивная
Бит/(Пиксели*Кадры)              : 0.144
Размер потока                    : 1,73 Гбайт (79%)
Библиотека кодирования           : x264 core 138 r2358 9e941d1
Настройки программы              : cabac=1 / ref=10 / deblock=1:-3:-3 / analyse=0x3:0x113 / me=umh / subme=9 / psy=1 / psy_rd=1.00:0.00 / mixed_ref=1 / me_range=32 / chroma_me=1 / trellis=2 / 8x8dct=1 / cqm=0 / deadzone=21,11 / fast_pskip=0 / chroma_qp_offset=-2 / threads=6 / lookahead_threads=1 / sliced_threads=0 / nr=0 / decimate=1 / interlaced=0 / bluray_compat=0 / constrained_intra=0 / bframes=12 / b_pyramid=2 / b_adapt=2 / b_bias=12 / direct=1 / weightb=1 / open_gop=0 / weightp=2 / keyint=240 / keyint_min=24 / scenecut=40 / intra_refresh=0 / rc_lookahead=40 / rc=2pass / mbtree=1 / bitrate=1940 / ratetol=1.0 / qcomp=0.70 / qpmin=0 / qpmax=69 / qpstep=4 / cplxblur=20.0 / qblur=0.5 / ip_ratio=1.40 / aq=1:1.00
Язык                             : English

Аудио
Идентификатор                    : 2
Формат                           : AC-3
Формат/Информация                : Audio Coding 3
Расширение режима                : CM (complete main)
Идентификатор кодека             : A_AC3
Продолжительность                : 2 ч. 10 м.
Вид битрейта                     : Постоянный
Битрейт                          : 448 Кбит/сек
Канал(ы)                         : 6 канала(ов)
Расположение каналов             : Front: L C R, Side: L R, LFE
Частота                          : 48,0 КГц
Битовая глубина                  : 16 бит
Метод сжатия                     : С потерями
Размер потока                    : 418 Мбайт (19%)


piratbit.pw



Скачать Дубровский через торрент http://pic.kartinco.top/images/6/r1aps.jpg Скачать фильм Дубровский через торрент бесплантно в хорошем качестве Описание: Владимир Дубровский — успешный столичный юрист и завсегдатай модных клубов, Маша Троекурова — выпускница английского колледжа и ... 9.9 10 7
Info! Золотая раздача, скачанное не засчитывается.
Торрент: Зарегистрирован [2014-04-15 16:47] · скачан: 103 раз
Статус: √ проверено
Размер: 2.18 GB
Как cкачать? Как скачать Дубровский через торрент | qTorrent

% Раздел Тема Автор DL S | L
Наши фильмы (HD, WEB-DL 720p, 1080p) [ 11.97 GB ] Дубровский [2014 BDRip 1080p Оригинал] от R.G. PiratFilms Pavlin Скачать
1 | 0

28-11-2019 20:33  

Отключить всю рекламу на сайте

    Дорогой пользователь! Огромная просьба, поблагодарите релизера, оцените раздачу и оставьте свои комментарий, если Вы скачали Дубровский через торрент бесплатно! Внесите свою лепту в развитие PiratBit!
    Комментировать посты могут только пользователи прошедшие не сложную регистрацию
    Показать сообщения:    

    Дубровский через торрент
    Скачать бесплатно Дубровский
    Дубровский скачать торрент
    Дубровский смотреть онлайн
    Cкачать фильм Дубровский бесплатно
    Дубровский скачать торрент в хорошем качестве
    Дубровский смотреть онлайн бесплатно в хорошем качестве


    Вы не можете начинать темы
    Вы не можете отвечать на сообщения
    Вы не можете редактировать свои сообщения
    Вы не можете удалять свои сообщения
    Вы не можете голосовать в опросах
    Вы не можете прикреплять файлы к сообщениям
    Вы можете скачивать файлы