1 сезон

1 сезон

iTunes

1

КиноПоиск HD

Кинопоиск HD

iTunes

13

1 сезон

RePack

30

Новинка

ВАЖНО

ИГРА 18+

pack

RePack

MK11
pack

Легкие деньги

RePack

jed

RePack

fifa19

RePack

RDR2

RePack

NEED FOR SPEED™ PAYBACK

4 сезон

9 сезон

Бесстыжие 9 сезон

Все сериалы

все сериалы на PB.wtf

RePack

FAR CRY 5
  
Magnet ссылка

Похмелье 2 / Мальчишник 2: Из Вегаса в Бангкок / The Hangover Part II (Тодд Филлипс / Todd Phillips) [2011 г., Комедия, HDRip] [AVO] (Карповский) piratbit.pw

Похмелье 2 через торрент piratbit.pw

Размер: 1.45 GB | Добавлен: 7 лет назад | Торрент скачан:284 раза
Скачать  

14-04-2014 07:53 Похмелье 2 Скачать торрент  

Похмелье 2 / Мальчишник 2: Из Вегаса в Бангкок / The Hangover Part II
Год выпуска: 2011
Страна: США
Жанр: Комедия
Продолжительность: 01:41:49
Перевод: Авторский (одноголосый, закадровый)[А.Карповский]
Cубтитры: нет

Режиссер: Тодд Филлипс / Todd Phillips

В ролях: Брэдли Купер /Bradley Cooper/, Эд Хелмс /Ed Helms/, Зак Галифианакис /Zach Galifianakis/, Кен Жонг /Ken Jeong/

Описание: В продолжении культовой комедии, четверо друзей Фил, Стю, Алан и Даг отправляются в экзотический Тайланд на свадьбу Стю. После безумного мальчишника в Лас-Вегасе, они решают не испытывать судьбу во второй раз, а потому в Бангкоке планируют очень спокойное и безопасное празднество. Но как обычно, все идет совсем не по плану... Что происходит в Вегасе, остается в Вегасе. Но то, что происходит в Бангкоке - это просто настоящее безумие!



Качество видео: HDRip
Формат: AVI
Видео кодек: XviD
Аудио кодек: AC3
Видео: 720x304 (2.37:1), 23.976 fps, XviD build 50 ~1584 kbps avg, 0.30 bit/pixel
Аудио: 48 kHz, AC3 Dolby Digital, 3/2 (L,C,R,l,r) + LFE ch, ~448.00 kbps avg
За перевод, данного фильма у Антона Карповского, выражается благодарность следующим людям: SavineX, feldeger, zeleniydzhan, KpucTo161, Диммон, Luka69, Ace34, Role, Guyver, Gross1978, v111o, Denis2251. Рип от scarabey.
Формат : AVI
Формат/Информация : Audio Video Interleave
Размер файла : 1,45 Гбайт
Продолжительность : 1 ч. 41 м.
Общий поток : 2042 Кбит/сек
Программа кодирования : VirtualDubMod 1.5.4.1 (build 2178/release)
Библиотека кодирования : VirtualDubMod build 2178/release
Видео
Идентификатор : 0
Формат : MPEG-4 Visual
Профиль формата : Advanced Simple@L5
Параметр BVOP формата : 1
Параметр QPel формата : Нет
Параметр GMC формата : Без точки перехода
Параметр матрицы формата : Выборочная
Идентификатор кодека : XVID
Идентификатор кодека/Подсказка : XviD
Продолжительность : 1 ч. 41 м.
Битрейт : 1585 Кбит/сек
Ширина : 720 пикселей
Высота : 304 пикселя
Соотношение сторон : 2,35:1
Частота кадров : 23,976 кадра/сек
Цветовое пространство : YUV
Субдискретизация насыщенности : 4:2:0
Битовая глубина : 8 бит
Тип развёртки : Прогрессивная
Метод сжатия : С потерями
Бит/(Пиксели*Кадры) : 0.302
Размер потока : 1,13 Гбайт (78%)
Библиотека кодирования : XviD 1.2.1 (UTC 2008-12-04)
Аудио
Идентификатор : 1
Формат : AC-3
Формат/Информация : Audio Coding 3
Расширение режима : CM (complete main)
Параметр Endianness формата : Big
Идентификатор кодека : 2000
Продолжительность : 1 ч. 41 м.
Вид битрейта : Постоянный
Битрейт : 448 Кбит/сек
Каналы : 6 каналов
Расположение каналов : Front: L C R, Side: L R, LFE
Частота : 48,0 КГц
Битовая глубина : 16 бит
Метод сжатия : С потерями
Размер потока : 326 Мбайт (22%)
Выравнивание : Разделение по промежуткам
Продолжительность промежутка : 42 мс. (1,00 видеокадр)
Время предзагрузки промежутка : 500 мс.
скриншот   скриншот   скриншот   скриншот   скриншот   скриншот   скриншот   скриншот  
piratbit.pw



Скачать Похмелье 2 через торрент https://pic.kartinco.top/images/6/glofn.jpg Скачать фильм Похмелье 2 через торрент бесплантно в хорошем качестве Описание: В продолжении культовой комедии, четверо друзей Фил, Стю, Алан и Даг отправляются в экзотический Тайланд на свадьбу Стю. После ... 10 10 7
Торрент: Зарегистрирован [2014-04-14 07:53] · скачан: 284 раз
Статус: √ проверено
Размер: 1.45 GB
Как cкачать? Как скачать Похмелье 2 через торрент | UTorrent

% Раздел Тема Автор DL S | L
Фильмы 2011 [ 3.03 GB ] Похмелье. Часть 2 / Мальчишник 2: Из Вегаса в Бангкок / The Hangover Part II [2011 HDRip-AVC] VO + Sub + Original Eng oartemka178 Скачать
1 | 0

28-11-2019 20:33  

Отключить всю рекламу на сайте

    Дорогой пользователь! Огромная просьба, поблагодарите релизера, оцените раздачу и оставьте свои комментарий, если Вы скачали Похмелье 2 через торрент бесплатно! Внесите свою лепту в развитие PiratBit!
    Комментировать посты могут только пользователи прошедшие не сложную регистрацию
    Показать сообщения:    

    Похмелье 2 через торрент
    Скачать бесплатно Похмелье 2
    Похмелье 2 скачать торрент
    Похмелье 2 смотреть онлайн
    Cкачать фильм Похмелье 2 бесплатно
    Похмелье 2 скачать торрент в хорошем качестве
    Похмелье 2 смотреть онлайн бесплатно в хорошем качестве


    Вы не можете начинать темы
    Вы не можете отвечать на сообщения
    Вы не можете редактировать свои сообщения
    Вы не можете удалять свои сообщения
    Вы не можете голосовать в опросах
    Вы не можете прикреплять файлы к сообщениям
    Вы можете скачивать файлы