Ссылка на приватное зеркало нашего сайта всего за 1$. Внимание количество ограничено!!!

2 сезон

iTunes

iTunes

1

iTunes

iTunes

iTunes

WEBRip

iTunes

30
pack

Новость дня

ВАЖНО

!!Акция!!

Alien_RageХит недели

RePack

Horizon Zero Dawn

ИГРА 18+

pack

RePack

jed

!!Акция!!

Alien_Rage

RePack

fifa19

RePack

Assassins Creed: Odyssey

RePack

NEED FOR SPEED™ PAYBACK

4 сезон

9 сезон

Бесстыжие 9 сезон

Все сериалы

все сериалы на PB.wtf

RePack

FAR CRY 5
  

Владение 18 (Святослав Подгаевский) [2013 г., ужасы, триллер, детектив, BDRip 1080p, Оригинал] от R.G. PiratFilms piratbit.pw

Владение 18 через торрент piratbit.pw

Размер: 5.52 GB | Добавлен: 6 лет 5 мес. назад | Торрент скачан:529 раз
Скачать  

13-04-2014 12:25 Владение 18 Скачать торрент  

Владение 18
«Зло живёт по соседству»
Год выпуска: 2013
Страна: Россия
Жанр: ужасы, триллер, детектив
Продолжительность: 01:32:38
Перевод: Оригинал
Тип релиза: Лицензия

Режиссер: Святослав Подгаевский
Продюссер: Дмитрий Бесин, Глеб Кукушкин, Игорь Добровольский
Сценарий: Дмитрий Бесин

Бюджет: $320 395
Премьера в мире: 13 марта 2014




В ролях: Дмитрий Ендальцев, Мария Фомина, Борис Полунин, Виктория Райкова, Юрий Филатов, Сергей Холмогоров, Ольга Приходько

Описание: Сиреневые Холмы, Владение 18 — адрес обычной многоэтажки на окраине города. Скоро здесь будет новый цветущий микрорайон, но пока вокруг царит девственное запустение. Сейчас цены на квартиры в этом доме так заманчиво низки... И продают их, оказывается, только по специальной благотворительной программе инвесторов! Когда ещё небогатым молодожёнам Свете и Максиму представится такой удивительный шанс переехать из крохотной коммуналки в собственную просторную квартиру?..Но вскоре после новоселья они начинают понимать, что с новым домом что-то не так. Странные соседи, с которыми молодожёнам никак не удаётся поговорить, сторож, больше напоминающий надзирателя в концлагере, кошмарные сны и видения, которые совсем не похожи на игру воображения... Но самое ужасное — гости, навещающие их после переезда... Гости-призраки, рассказывающие о том, какой страшной смертью они умерли в этом доме. Удастся ли Свете и Максиму выбраться живыми из дьявольской западни или уже слишком поздно?

Качество: BDRip 1080p
Формат: MKV
Видео кодек: AVC
Аудио кодек: AC3
Видео: MPEG-4 AVC, 7900 Кбит/с, 1920х804 (2.40:1), 24.000 кадр/с
Аудио#1: Русский ( AC3, 6 ch, 640 Кбит/с, 48.0 КГц, 16 бит)
Rip by-=Pavlin=-
скриншот  скриншот  скриншот  





Код:

x264 [info]: frame I:691   Avg QP:14.72  size:117833
x264 [info]: frame P:30540 Avg QP:16.60  size: 55316
x264 [info]: frame B:101934 Avg QP:17.47  size: 36376
x264 [info]: consecutive B-frames:  2.9%  4.6% 13.7%  8.7% 12.8% 42.6%  8.3%  0.6%  2.5%  0.4%  1.6%  1.4%

Код:

Общее
Уникальный идентификатор                 : 223256582135409106727002981327209895911 (0xA7F5A757AD9F0A50811BE6E0F18A17E7)
Полное имя                               : E:\Test\Vladeniye.18.2013.BDRip.1080p.by.-=Pavlin=-.R.G.PiratFilms.mkv
Формат                                   : Matroska
Версия формата                           : Version 4 / Version 2
Размер файла                             : 5,52 Гбайт
Продолжительность                        : 1 ч. 32 м.
Общий поток                              : 8541 Кбит/сек
Название фильма                          : Vladeniye.18.(2013).BDRip.1080p.by.-=Pavlin=-.R.G.PiratFilms@
Дата кодирования                         : UTC 2014-04-13 11:08:52
Программа кодирования                    : mkvmerge v6.5.0 ('Isn't she lovely') built on Oct 20 2013 12:50:05
Библиотека кодирования                   : libebml v1.3.0 + libmatroska v1.4.1

Видео
Идентификатор                            : 1
Формат                                   : AVC
Формат/Информация                        : Advanced Video Codec
Профиль формата                          : High@L4.1
Параметр CABAC формата                   : Да
Параметр ReFrames формата                : 5 кадров
Идентификатор кодека                     : V_MPEG4/ISO/AVC
Продолжительность                        : 1 ч. 32 м.
Битрейт                                  : 7900 Кбит/сек
Ширина                                   : 1920 пикселей
Высота                                   : 804 пикселя
Соотношение сторон                       : 2,40:1
Режим частоты кадров                     : Постоянный
Частота кадров                           : 24,000 кадра/сек
Цветовое пространство                    : YUV
Субдискретизация насыщенности            : 4:2:0
Битовая глубина                          : 8 бит
Тип развёртки                            : Прогрессивная
Бит/(Пиксели*Кадры)                      : 0.213
Размер потока                            : 4,99 Гбайт (91%)
Библиотека кодирования                   : x264 core 138 r2358 9e941d1
Настройки программы                      : cabac=1 / ref=5 / deblock=1:-3:-3 / analyse=0x3:0x113 / me=umh / subme=9 / psy=1 / psy_rd=1.02:0.05 / mixed_ref=1 / me_range=32 / chroma_me=1 / trellis=2 / 8x8dct=1 / cqm=0 / deadzone=21,11 / fast_pskip=0 / chroma_qp_offset=-5 / threads=6 / lookahead_threads=1 / sliced_threads=0 / nr=0 / decimate=1 / interlaced=0 / bluray_compat=0 / constrained_intra=0 / bframes=11 / b_pyramid=2 / b_adapt=2 / b_bias=0 / direct=3 / weightb=1 / open_gop=0 / weightp=2 / keyint=230 / keyint_min=23 / scenecut=40 / intra_refresh=0 / rc_lookahead=60 / rc=2pass / mbtree=1 / bitrate=7900 / ratetol=1.0 / qcomp=0.70 / qpmin=0 / qpmax=69 / qpstep=4 / cplxblur=20.0 / qblur=0.5 / vbv_maxrate=62500 / vbv_bufsize=50000 / nal_hrd=none / ip_ratio=1.40 / aq=1:0.80
Язык                                     : English
Default                                  : Да
Forced                                   : Нет

Аудио
Идентификатор                            : 2
Формат                                   : AC-3
Формат/Информация                        : Audio Coding 3
Расширение режима                        : CM (complete main)
Параметр Endianness формата              : Big
Идентификатор кодека                     : A_AC3
Продолжительность                        : 1 ч. 32 м.
Вид битрейта                             : Постоянный
Битрейт                                  : 640 Кбит/сек
Каналы                                   : 6 каналов
Расположение каналов                     : Front: L C R, Side: L R, LFE
Частота                                  : 48,0 КГц
Битовая глубина                          : 16 бит
Метод сжатия                             : С потерями
Размер потока                            : 423 Мбайт (7%)
Заголовок                                : Оригинал
Язык                                     : Russian
Default                                  : Да
Forced                                   : Нет



Владение 18 скачать торрент


piratbit.pw



Скачать Владение 18 через торрент http://pic.kartinco.top/images/6/b8vuw.jpg Скачать фильм Владение 18 через торрент бесплантно в хорошем качестве Описание: Сиреневые Холмы, Владение 18 — адрес обычной многоэтажки на окраине города. Скоро здесь будет новый цветущий микрорайон, но пока ... 9.9 10 19
Info! Золотая раздача, скачанное не засчитывается.
Торрент: Зарегистрирован [2014-04-13 12:25] · скачан: 529 раз
Статус: √ проверено
Размер: 5.52 GB
Как cкачать? Как скачать Владение 18 через торрент | qTorrent

% Раздел Тема Автор DL S | L
Наши новые фильмы 2014 [ 1.46 GB ] Владение 18 [2014 HDRip-AVC] от R.G. PiratFilms White Smoke Скачать
1 | 0

28-11-2019 20:33  

Отключить всю рекламу на сайте

13-04-2014 12:38 Владение 18 Скачать торрент  

все на раздачуpiratbit.pw



13-04-2014 12:40 Владение 18 Скачать торрент  

aleksze, piratbit.pw



13-04-2014 20:44 Владение 18 Скачать торрент  

Посмотреть можно)) 1 раз...piratbit.pw



18-05-2014 16:48 Владение 18 Скачать торрент  

как фильм?piratbit.pw



    Дорогой пользователь! Огромная просьба, поблагодарите релизера, оцените раздачу и оставьте свои комментарий, если Вы скачали Владение 18 через торрент бесплатно! Внесите свою лепту в развитие PiratBit!
    Комментировать посты могут только пользователи прошедшие не сложную регистрацию
    Показать сообщения:    

    Владение 18 через торрент
    Скачать бесплатно Владение 18
    Владение 18 скачать торрент
    Владение 18 смотреть онлайн
    Cкачать фильм Владение 18 бесплатно
    Владение 18 скачать торрент в хорошем качестве
    Владение 18 смотреть онлайн бесплатно в хорошем качестве


    Вы не можете начинать темы
    Вы не можете отвечать на сообщения
    Вы не можете редактировать свои сообщения
    Вы не можете удалять свои сообщения
    Вы не можете голосовать в опросах
    Вы не можете прикреплять файлы к сообщениям
    Вы можете скачивать файлы