1 сезон

1 сезон

iTunes

1

КиноПоиск HD

Кинопоиск HD

iTunes

13

1 сезон

RePack

30

Ultimate

ВАЖНО

ИГРА 18+

pack

RePack

MK11
pack

Легкие деньги

RePack

jed

RePack

fifa19

RePack

RDR2

RePack

NEED FOR SPEED™ PAYBACK

4 сезон

9 сезон

Бесстыжие 9 сезон

Все сериалы

все сериалы на PB.wtf

RePack

FAR CRY 5
  
Magnet ссылка

Третий лишний / Ted (Сет МакФарлейн / Seth MacFarlane) [2012 г., Комедия, HDRip] [UNRATED] [AVO] (А.Карповский) piratbit.pw

Третий лишний через торрент piratbit.pw

Размер: 1.46 GB | Добавлен: 7 лет назад | Торрент скачан:284 раза
Скачать  

13-04-2014 11:06 Третий лишний Скачать торрент  

Третий лишний / Ted
Год выпуска: 2012
Страна: США
Жанр: Комедия
Продолжительность: 01:52:15
Перевод: Авторский (одноголосый, закдровый)[А.Карповский]
Cубтитры: нет

Режиссер: Сет МакФарлейн / Seth MacFarlane

В ролях: Марк Уолберг /Mark Wahlberg/, Мила Кунис /Mila Kunis/, Сет МакФарлейн /Seth MacFarlane/, Джоэл МакХэйл /Joel McHale/, Джованни Рибизи /Giovanni Ribisi

Описание: Джон влюблен в красавицу Лори, у него отличная работа и большие планы на будущее. Но в их отношения вмешивается третий, давний друг Джона — Тед. Он отрывается сутки напролет, предпочитает случайные связи и не желает терять друга. Но никто на самом деле не знает на что он способен, ведь Тед — большой плюшевый медведь.



Качество: HDRip [исх. ]
Формат: AVI
Видео кодек: XviD
Аудио кодек: AC3
Видео: 720x384 (1.88:1), 23.976 fps, XviD build 73 ~1473 kbps avg, 0.22 bit/pixel
Аудио: 48 kHz, AC3 Dolby Digital, 3/2 (L,C,R,l,r) + LFE ch, ~384.00 kbps avg
За перевод, данного фильма у Антона Карповского, выражается благодарность "Клубу Карповского" и MeGUI в частности.
Формат : AVI
Формат/Информация : Audio Video Interleave
Размер файла : 1,46 Гбайт
Продолжительность : 1 ч. 52 м.
Общий поток : 1867 Кбит/сек
Программа кодирования : VirtualDubMod 1.5.4.1 (build 2178/release)
Библиотека кодирования : VirtualDubMod build 2178/release
Видео
Идентификатор : 0
Формат : MPEG-4 Visual
Профиль формата : Advanced Simple@L5
Параметр BVOP формата : 1
Параметр QPel формата : Нет
Параметр GMC формата : Без точки перехода
Параметр матрицы формата : Default (MPEG)
Идентификатор кодека : DX50
Идентификатор кодека/Подсказка : DivX 5
Продолжительность : 1 ч. 52 м.
Битрейт : 1473 Кбит/сек
Ширина : 720 пикселей
Высота : 384 пикселя
Соотношение сторон : 1,85:1
Частота кадров : 23,976 кадра/сек
Цветовое пространство : YUV
Субдискретизация насыщенности : 4:2:0
Битовая глубина : 8 бит
Тип развёртки : Прогрессивная
Метод сжатия : С потерями
Бит/(Пиксели*Кадры) : 0.222
Размер потока : 1,16 Гбайт (79%)
Библиотека кодирования : XviD 73
Аудио
Идентификатор : 1
Формат : AC-3
Формат/Информация : Audio Coding 3
Расширение режима : CM (complete main)
Параметр Endianness формата : Big
Идентификатор кодека : 2000
Продолжительность : 1 ч. 52 м.
Вид битрейта : Постоянный
Битрейт : 384 Кбит/сек
Каналы : 6 каналов
Расположение каналов : Front: L C R, Side: L R, LFE
Частота : 48,0 КГц
Битовая глубина : 16 бит
Метод сжатия : С потерями
Размер потока : 308 Мбайт (21%)
Выравнивание : Разделение по промежуткам
Продолжительность промежутка : 42 мс. (1,00 видеокадр)
Время предзагрузки промежутка : 500 мс.
piratbit.pw



Скачать Третий лишний через торрент http://i57.fastpic.ru/big/2014/0413/ee/63d3d2c7f319b7c146e5e014d658c3ee.jpg Скачать фильм Третий лишний через торрент бесплантно в хорошем качестве Описание: Джон влюблен в красавицу Лори, у него отличная работа и большие планы на будущее. Но в их отношения вмешивается третий, давний ... 8.1 10 7
Торрент: Зарегистрирован [2014-04-13 11:06] · скачан: 284 раз
Статус: √ проверено
Размер: 1.46 GB
Как cкачать? Как скачать Третий лишний через торрент | UTorrent

% Раздел Тема Автор DL S | L
Фильмы (WEB-DL 720p, 1080p) [ 10.23 GB ] Третий лишний 2 / Ted 2 [2015 WEB-DL 1080p ] [Театральная версия] DUB [] +AVO [Есарев] bober100 Скачать
1 | 0
Сборники и Сиквелы (48-60 fps) [ 7.65 GB ] Третий лишний: Дилогия / Ted: Dilogy [2012-2015 BDRip-AVC 60fps Unrated Cut AVO] от R.G. HD-Films Tiberiumsun69 Скачать
4 | 0
Фильмы 2012 [ 1.46 GB ] Третий лишний / Ted [2012 BDRip-AVC] DUB potroks Скачать
1 | 0
Фильмы 2015 [DVDrip, WEB-DLRip, HDrip] [ 1.46 GB ] Третий лишний 2 / Ted 2 [2015 BDRip-AVC] Dub potroks Скачать
2 | 0
Фильмы (HD 720p, 1080p) (48-60 fps) [ 5.89 GB ] Третий лишний 2 / Ted 2 [2015 BDRip 720p / 60 fps Theatrical Cut - ] от R.G. HD-Films Ressident Скачать
4 | 0
Фильмы 2015 [DVDrip, WEB-DLRip, HDrip] [ 1.46 GB ] Третий лишний 2 / Ted 2 [2015 BDRip] Dub Twi7ter Скачать
1 | 0
Фильмы с авторской озвучкой [ 1.46 GB ] Третий лишний 2 / Ted 2 [2015 BDRip Авторский [Есарев] Twi7ter Скачать
1 | 0

28-11-2019 20:33  

Отключить всю рекламу на сайте

    Дорогой пользователь! Огромная просьба, поблагодарите релизера, оцените раздачу и оставьте свои комментарий, если Вы скачали Третий лишний через торрент бесплатно! Внесите свою лепту в развитие PiratBit!
    Комментировать посты могут только пользователи прошедшие не сложную регистрацию
    Показать сообщения:    

    Третий лишний через торрент
    Скачать бесплатно Третий лишний
    Третий лишний скачать торрент
    Третий лишний смотреть онлайн
    Cкачать фильм Третий лишний бесплатно
    Третий лишний скачать торрент в хорошем качестве
    Третий лишний смотреть онлайн бесплатно в хорошем качестве


    Вы не можете начинать темы
    Вы не можете отвечать на сообщения
    Вы не можете редактировать свои сообщения
    Вы не можете удалять свои сообщения
    Вы не можете голосовать в опросах
    Вы не можете прикреплять файлы к сообщениям
    Вы можете скачивать файлы