1 сезон

1 сезон

iTunes

1

КиноПоиск HD

Кинопоиск HD

iTunes

13

1 сезон

RePack

30

Новинка

ВАЖНО

ИГРА 18+

pack

RePack

MK11
pack

Легкие деньги

RePack

jed

RePack

fifa19

RePack

RDR2

RePack

NEED FOR SPEED™ PAYBACK

4 сезон

9 сезон

Бесстыжие 9 сезон

Все сериалы

все сериалы на PB.wtf

RePack

FAR CRY 5
  
Magnet ссылка

Дом покера / The Poker House (Лори Петти / Lori Petty) [2007, США, драма, BDRip-AVC,Авторский (одноголосый закадровый) piratbit.pw

Дом покера через торрент piratbit.pw

Размер: 2.18 GB | Добавлен: 7 лет назад | Торрент скачан:47 раз
Скачать  

12-04-2014 09:02 Дом покера Скачать торрент  

Дом покера / The Poker House
Год выпуска: 2007
Страна: США
Жанр: драма
Продолжительность: 01:33:12
Перевод: Авторский (одноголосый закадровый) Михаил Чадов
Субтитры: Русские, английские

Режиссер: Лори Петти / Lori Petty
В ролях: Дженнифер Лоуренс (Agnes), Джейвон Джонсон (1st «John»), Софи Бейрли (Bee), Букем Вудбайн (Duval), Хлоя Грейс Морец (Cammie), Кэйси Таттон (Sheila), Сэльма Блэр (Sarah), Мэттью Гердиш (Earl), Роберт Гердиш (Burl), Лукас Эллман (Clyde Junior), Кимберли Меллен (Sheila's Mom), Эндрю Ротенберг (Clyde Senior)

Описание: Драматизация подростковых лет Лори Петти, проведенных в небольшом городке Айова.

kinopoisk.ru: 7.160 (875)
imdb.com: 6.60 (2387)
MPAA: R - Лицам до 17 лет обязательно присутствие взрослого

Качество: BDRip-AVC
Формат: MKV
Видео кодек: AVC
Аудио кодек: AC3
Видео: AVC, 1068x602 (16:9), 2461 kbps, 23,976 fps, 0,160 bpp
Аудио русский: AC3 / 5.1 / 48 kHz / 448 kbps / 16 bit
Аудио английский: AC3 / 5.1 / 48 kHz / 448 kbps / 16 bit


Релиз от
Автор рипа: potroks
Общее
Уникальный идентификатор : 170578254455903954459994544620183096193 (0x80542D4389A4DB02A01A7E9F8ED60B81)
Полное имя : E:\закачки\Dom.Pokera.2007.DUAL.BDRip.-HELLYWOOD.mkv
Формат : Matroska
Версия формата : Version 4 / Version 2
Размер файла : 2,18 Гбайт
Продолжительность : 1 ч. 33 м.
Общий поток : 3353 Кбит/сек
Название фильма : HELLYWOOD - rip by potroks
Дата кодирования : UTC 2013-12-12 16:22:00
Программа кодирования : mkvmerge v5.9.0 ('On The Loose') built on Dec 15 2012 16:39:58
Библиотека кодирования : libebml v1.3.0 + libmatroska v1.4.0

Видео
Идентификатор : 1
Формат : AVC
Формат/Информация : Advanced Video Codec
Профиль формата : High@L4.1
Параметр CABAC формата : Да
Параметр ReFrames формата : 12 кадров
Идентификатор кодека : V_MPEG4/ISO/AVC
Продолжительность : 1 ч. 33 м.
Битрейт : 2461 Кбит/сек
Ширина : 1068 пикселей
Высота : 602 пикселя
Соотношение сторон : 16:9
Режим частоты кадров : Постоянный
Частота кадров : 23,976 кадра/сек
Цветовое пространство : YUV
Субдискретизация насыщенности : 4:2:0
Битовая глубина : 8 бит
Тип развёртки : Прогрессивная
Бит/(Пиксели*Кадры) : 0.160
Размер потока : 1,56 Гбайт (71%)
Заголовок : The Poker House
Библиотека кодирования : x264 core 130 r2273 b3065e6
Настройки программы : cabac=1 / ref=12 / deblock=1:-3:-3 / analyse=0x3:0x133 / me=umh / subme=11 / psy=1 / psy_rd=1.02:0.00 / mixed_ref=1 / me_range=48 / chroma_me=1 / trellis=2 / 8x8dct=1 / cqm=0 / deadzone=21,11 / fast_pskip=0 / chroma_qp_offset=-2 / threads=9 / lookahead_threads=8 / sliced_threads=0 / nr=0 / decimate=0 / interlaced=0 / bluray_compat=0 / constrained_intra=0 / bframes=13 / b_pyramid=2 / b_adapt=2 / b_bias=0 / direct=3 / weightb=1 / open_gop=0 / weightp=2 / keyint=250 / keyint_min=23 / scenecut=40 / intra_refresh=0 / rc_lookahead=60 / rc=2pass / mbtree=0 / bitrate=2461 / ratetol=1.0 / qcomp=0.70 / qpmin=0 / qpmax=69 / qpstep=4 / cplxblur=20.0 / qblur=0.5 / vbv_maxrate=20000 / vbv_bufsize=25000 / nal_hrd=none / ip_ratio=1.35 / pb_ratio=1.25 / aq=1:0.90
Язык : English
Default : Да
Forced : Нет

Аудио #1
Идентификатор : 2
Формат : AC-3
Формат/Информация : Audio Coding 3
Расширение режима : CM (complete main)
Параметр Endianness формата : Big
Идентификатор кодека : A_AC3
Продолжительность : 1 ч. 33 м.
Вид битрейта : Постоянный
Битрейт : 448 Кбит/сек
Каналы : 6 каналов
Расположение каналов : Front: L C R, Side: L R, LFE
Частота : 48,0 КГц
Битовая глубина : 16 бит
Метод сжатия : С потерями
Размер потока : 299 Мбайт (13%)
Заголовок : AVO | DD 5.1 @ 448 kbps - М.Чадов
Язык : Russian
Default : Да
Forced : Да

Аудио #2
Идентификатор : 3
Формат : AC-3
Формат/Информация : Audio Coding 3
Расширение режима : CM (complete main)
Параметр Endianness формата : Big
Идентификатор кодека : A_AC3
Продолжительность : 1 ч. 33 м.
Вид битрейта : Постоянный
Битрейт : 448 Кбит/сек
Каналы : 6 каналов
Расположение каналов : Front: L C R, Side: L R, LFE
Частота : 48,0 КГц
Битовая глубина : 16 бит
Метод сжатия : С потерями
Размер потока : 299 Мбайт (13%)
Заголовок : Original | DD 5.1 @ 448 kbps
Язык : English
Default : Нет
Forced : Нет

Текст #1
Идентификатор : 4
Формат : UTF-8
Идентификатор кодека : S_TEXT/UTF8
Идентификатор кодека/Информация : UTF-8 Plain Text
Язык : Russian
Default : Нет
Forced : Нет

Текст #2
Идентификатор : 5
Формат : UTF-8
Идентификатор кодека : S_TEXT/UTF8
Идентификатор кодека/Информация : UTF-8 Plain Text
Язык : English
Default : Нет
Forced : Нет

Меню
00:00:00.000 : en:(01)00:00:00:000
00:07:25.027 : en:(02)00:07:25:027
00:15:22.504 : en:(03)00:15:22:504
00:23:13.349 : en:(04)00:23:13:349
00:30:16.481 : en:(05)00:30:16:481
00:39:02.131 : en:(06)00:39:02:131
00:46:20.777 : en:(07)00:46:20:777
00:50:42.205 : en:(08)00:50:42:205
00:58:29.214 : en:(09)00:58:29:214
01:06:12.635 : en:(10)01:06:12:635
01:15:52.506 : en:(11)01:15:52:506
01:21:59.289 : en:(12)01:21:59:289
01:33:09.292 : en:(13)01:33:09:292
piratbit.pw



Скачать Дом покера через торрент http://s003.radikal.ru/i204/1312/89/4df59f0b79e8.png Скачать фильм Дом покера через торрент бесплантно в хорошем качестве Описание: Драматизация подростковых лет Лори Петти, проведенных в небольшом городке Айова.kinopoisk.ru: 160 (875)imdb.com: 60 ... 10 10 2
Торрент: Зарегистрирован [2014-04-12 09:02] · скачан: 47 раз
Статус: √ проверено
Размер: 2.18 GB
Как cкачать? Как скачать Дом покера через торрент | UTorrent

% Раздел Тема Автор DL S | L
Фильмы с авторской озвучкой [ 4.37 GB ] Дом покера / The Poker House [2007 BDRip 720pАвторский _denis_100 Скачать
1 | 0

28-11-2019 20:33  

Отключить всю рекламу на сайте

12-04-2014 09:16 Дом покера Скачать торрент  

KEYS писал(а):

[qpost=undefined]Полного источника не было: Никогда

?piratbit.pw



12-04-2014 09:24 Дом покера Скачать торрент  

Raven писал(а):

KEYS писал(а):

[qpost=undefined]Полного источника не было: Никогда

?

сам не понимаю.на раздаче стою

во,появилсяpiratbit.pw



12-04-2014 10:49 Дом покера Скачать торрент  

прочитал ;дом чпокера; sarcasticpiratbit.pw



    Дорогой пользователь! Огромная просьба, поблагодарите релизера, оцените раздачу и оставьте свои комментарий, если Вы скачали Дом покера через торрент бесплатно! Внесите свою лепту в развитие PiratBit!
    Комментировать посты могут только пользователи прошедшие не сложную регистрацию
    Показать сообщения:    

    Дом покера через торрент
    Скачать бесплатно Дом покера
    Дом покера скачать торрент
    Дом покера смотреть онлайн
    Cкачать фильм Дом покера бесплатно
    Дом покера скачать торрент в хорошем качестве
    Дом покера смотреть онлайн бесплатно в хорошем качестве


    Вы не можете начинать темы
    Вы не можете отвечать на сообщения
    Вы не можете редактировать свои сообщения
    Вы не можете удалять свои сообщения
    Вы не можете голосовать в опросах
    Вы не можете прикреплять файлы к сообщениям
    Вы можете скачивать файлы