1 сезон

1 сезон

iTunes

1

КиноПоиск HD

Кинопоиск HD

iTunes

13

1 сезон

RePack

30

Новинка

ВАЖНО

ИГРА 18+

pack

RePack

MK11
pack

Легкие деньги

RePack

jed

RePack

fifa19

RePack

RDR2

RePack

NEED FOR SPEED™ PAYBACK

4 сезон

9 сезон

Бесстыжие 9 сезон

Все сериалы

все сериалы на PB.wtf

RePack

FAR CRY 5
  
Magnet ссылка

Из пекла / Out of the Furnace (Скотт Купер / Scott Cooper) [2013 г., Триллер, драма, криминал, BDRip-AVC) AVO [Д.Есарев] piratbit.pw

Из пекла через торрент piratbit.pw

Размер: 1.47 GB | Добавлен: 7 лет назад | Торрент скачан:757 раз
Скачать  

11-04-2014 18:14 Из пекла Скачать торрент  

Из пекла / Out of the Furnace
Год выпуска: 2013
Страна: США, Великобритания / Appian Way, Energy Entertainment, Red Granite Pictures, Relativity Media...
Жанр: Триллер, драма, криминал
Продолжительность: 01:56:07
Перевод: Авторский [Д.Есарев]
Субтитры: Русские (х2), английские (Full + SDH + SDH-Colored)
Навигация по главам: Есть

Режиссер: Скотт Купер / Scott Cooper



В ролях: Кристиан Бэйл, Вуди Харрельсон, Кейси Аффлек, Форест Уитакер, Уиллем Дефо, Зои Салдана, Сэм Шепард, Дендри Тейлор, Карл Киарфалио, Нэнси Моссер

Описание: Когда Родни Бэйз таинственно исчезает, а правоохранительные органы при этом действуют недостаточно быстро, его старший брат Рассел берет дело в свои руки, чтобы добиться справедливости.

Качество: BDRip-AVC
Формат: MKV
Видео кодек: H.264
Аудио кодек: AC3
Видео: 960x400 (2,40:1), 23.976 fps, 1358 Кbps, 0.147 bit/pixel
Аудио: 48 kHz, AC3 Dolby Digital, 3/2 (L,C,R,l,r) + LFE ch, 448.00 kbps

Автор рипа:

Общее
Уникальный идентификатор : 208928730022767956781693606705760774306 (0x9D2E35B17A9F579A9D9F310C974728A2)
Полное имя : Iz.Pekla.2013.RUS.BDRip.x264.potroks.mkv
Формат : Matroska
Версия формата : Version 4 / Version 2
Размер файла : 1,47 Гбайт
Продолжительность : 1 ч. 56 м.
Общий поток : 1808 Кбит/сек
Название фильма : -=POTROKS=-
Дата кодирования : UTC 2014-04-11 18:03:08
Программа кодирования : mkvmerge v5.9.0 ('On The Loose') built on Dec 15 2012 16:39:58
Библиотека кодирования : libebml v1.3.0 + libmatroska v1.4.0

Видео
Идентификатор : 1
Формат : AVC
Формат/Информация : Advanced Video Codec
Профиль формата : High@L4.1
Параметр CABAC формата : Да
Параметр ReFrames формата : 12 кадров
Идентификатор кодека : V_MPEG4/ISO/AVC
Продолжительность : 1 ч. 56 м.
Битрейт : 1358 Кбит/сек
Ширина : 960 пикселей
Высота : 400 пикселей
Соотношение сторон : 2,40:1
Режим частоты кадров : Постоянный
Частота кадров : 23,976 кадра/сек
Цветовое пространство : YUV
Субдискретизация насыщенности : 4:2:0
Битовая глубина : 8 бит
Тип развёртки : Прогрессивная
Бит/(Пиксели*Кадры) : 0.147
Размер потока : 1,07 Гбайт (73%)
Заголовок : Out of the Furnace
Библиотека кодирования : x264 core 130 r2273 b3065e6
Настройки программы : cabac=1 / ref=12 / deblock=1:-3:-3 / analyse=0x3:0x133 / me=umh / subme=11 / psy=1 / psy_rd=0.97:0.00 / mixed_ref=1 / me_range=32 / chroma_me=1 / trellis=2 / 8x8dct=1 / cqm=0 / deadzone=21,11 / fast_pskip=0 / chroma_qp_offset=-2 / threads=6 / lookahead_threads=1 / sliced_threads=0 / nr=0 / decimate=0 / interlaced=0 / bluray_compat=0 / constrained_intra=0 / bframes=13 / b_pyramid=2 / b_adapt=2 / b_bias=0 / direct=3 / weightb=1 / open_gop=0 / weightp=2 / keyint=250 / keyint_min=23 / scenecut=40 / intra_refresh=0 / rc_lookahead=60 / rc=2pass / mbtree=0 / bitrate=1358 / ratetol=1.0 / qcomp=0.70 / qpmin=0 / qpmax=69 / qpstep=4 / cplxblur=20.0 / qblur=0.5 / vbv_maxrate=20000 / vbv_bufsize=20000 / nal_hrd=none / ip_ratio=1.35 / pb_ratio=1.25 / aq=1:0.90
Язык : English
Default : Да
Forced : Нет

Аудио
Идентификатор : 2
Формат : AC-3
Формат/Информация : Audio Coding 3
Расширение режима : CM (complete main)
Параметр Endianness формата : Big
Идентификатор кодека : A_AC3
Продолжительность : 1 ч. 56 м.
Вид битрейта : Постоянный
Битрейт : 448 Кбит/сек
Каналы : 6 каналов
Расположение каналов : Front: L C R, Side: L R, LFE
Частота : 48,0 КГц
Битовая глубина : 16 бит
Метод сжатия : С потерями
Размер потока : 372 Мбайт (25%)
Заголовок : AVO | DD 5.1 @ 448 kbps - Д.Есарев
Язык : Russian
Default : Да
Forced : Да

Текст #1
Идентификатор : 3
Формат : UTF-8
Идентификатор кодека : S_TEXT/UTF8
Идентификатор кодека/Информация : UTF-8 Plain Text
Заголовок : v1
Язык : Russian
Default : Нет
Forced : Нет

Текст #2
Идентификатор : 4
Формат : UTF-8
Идентификатор кодека : S_TEXT/UTF8
Идентификатор кодека/Информация : UTF-8 Plain Text
Заголовок : v2
Язык : Russian
Default : Нет
Forced : Нет

Текст #3
Идентификатор : 5
Формат : UTF-8
Идентификатор кодека : S_TEXT/UTF8
Идентификатор кодека/Информация : UTF-8 Plain Text
Заголовок : Full
Язык : English
Default : Нет
Forced : Нет

Текст #4
Идентификатор : 6
Формат : UTF-8
Идентификатор кодека : S_TEXT/UTF8
Идентификатор кодека/Информация : UTF-8 Plain Text
Заголовок : SDH
Язык : English
Default : Нет
Forced : Нет

Текст #5
Идентификатор : 7
Формат : UTF-8
Идентификатор кодека : S_TEXT/UTF8
Идентификатор кодека/Информация : UTF-8 Plain Text
Заголовок : SDH-Colored
Язык : English
Default : Нет
Forced : Нет

Меню
00:00:00.000 : en:(01)00:00:00:000
00:04:54.669 : en:(02)00:04:54:669
00:09:02.708 : en:(03)00:09:02:708
00:12:11.105 : en:(04)00:12:11:105
00:15:39.855 : en:(05)00:15:39:855
00:17:55.074 : en:(06)00:17:55:074
00:21:13.397 : en:(07)00:21:13:397
00:23:40.961 : en:(08)00:23:40:961
00:28:09.646 : en:(09)00:28:09:646
00:33:17.161 : en:(10)00:33:17:161
00:39:15.353 : en:(11)00:39:15:353
00:45:26.223 : en:(12)00:45:26:223
00:53:10.020 : en:(13)00:53:10:020
01:01:09.666 : en:(14)01:01:09:666
01:05:31.886 : en:(15)01:05:31:886
01:10:08.579 : en:(16)01:10:08:579
01:12:25.382 : en:(17)01:12:25:382
01:21:45.191 : en:(18)01:21:45:191
01:27:18.024 : en:(19)01:27:18:024
01:30:31.592 : en:(20)01:30:31:592
01:34:18.736 : en:(21)01:34:18:736
01:37:58.038 : en:(22)01:37:58:038
01:42:51.915 : en:(23)01:42:51:915
01:47:49.296 : en:(24)01:47:49:296
01:56:07.710 : en:(25)01:56:07:710

piratbit.pw



Скачать Из пекла через торрент http://i33.fastpic.ru/big/2014/0411/4f/63807df6c9ad64f29909ec277bbf5b4f.png Скачать фильм Из пекла через торрент бесплантно в хорошем качестве Описание: Когда Родни Бэйз таинственно исчезает, а правоохранительные органы при этом действуют недостаточно быстро, его старший брат ... 9.7 10 16
Торрент: Зарегистрирован [2014-04-11 18:14] · скачан: 757 раз
Статус: √ проверено
Размер: 1.47 GB
Как cкачать? Как скачать Из пекла через торрент | UTorrent



Последний раз редактировалось: potroks (2014-04-12 02:45), всего редактировалось 1 раз

28-11-2019 20:33  

Отключить всю рекламу на сайте

11-04-2014 18:37 Из пекла Скачать торрент  

зачем на торренте нужен рейтинг, объясните пожалуйста? зачем он для всех - я не хочу и не буду выкладывать какие то свои раздачи, я не удаляю сразу же скачанные файлы, чтобы помочь раздающим, я хочу скачивать то что хочу и именно в том размере в каком желаю - что за каменный век в ограничениях?piratbit.pw



11-04-2014 20:05 Из пекла Скачать торрент  

potroks, скриншот   перезалейте пожалуйста изображение на другой фотохостинг

crest96, ну так скачивайте, кто вам мешает?piratbit.pw



11-04-2014 23:08 Из пекла Скачать торрент  

crest96 писал(а):

зачем на торренте нужен рейтинг, объясните пожалуйста? зачем он для всех - я не хочу и не буду выкладывать какие то свои раздачи, я не удаляю сразу же скачанные файлы, чтобы помочь раздающим, я хочу скачивать то что хочу и именно в том размере в каком желаю - что за каменный век в ограничениях?

в чем проблема в сети полно торрент трекеров без рейтинга качай с них проходи мимоpiratbit.pw



12-04-2014 05:50 Из пекла Скачать торрент  

да ну его в пеклоpiratbit.pw



20-04-2014 17:53 Из пекла Скачать торрент  

Цитата:

Из пекла / Out of the Furnace (Скотт Купер / Scott Cooper) [2013 г., Триллер, драма, криминал, BDRip-AVC) AVO [Д.Есарев]

Неплохой фильм, в отличие от всего того г...,что сейчас снимают.piratbit.pw



    Дорогой пользователь! Огромная просьба, поблагодарите релизера, оцените раздачу и оставьте свои комментарий, если Вы скачали Из пекла через торрент бесплатно! Внесите свою лепту в развитие PiratBit!
    Комментировать посты могут только пользователи прошедшие не сложную регистрацию
    Показать сообщения:    

    Из пекла через торрент
    Скачать бесплатно Из пекла
    Из пекла скачать торрент
    Из пекла смотреть онлайн
    Cкачать фильм Из пекла бесплатно
    Из пекла скачать торрент в хорошем качестве
    Из пекла смотреть онлайн бесплатно в хорошем качестве


    Вы не можете начинать темы
    Вы не можете отвечать на сообщения
    Вы не можете редактировать свои сообщения
    Вы не можете удалять свои сообщения
    Вы не можете голосовать в опросах
    Вы не можете прикреплять файлы к сообщениям
    Вы можете скачивать файлы