1 сезон

1 сезон

iTunes

1

КиноПоиск HD

Кинопоиск HD

iTunes

13

1 сезон

RePack

30

Новинка

ВАЖНО

ИГРА 18+

pack

RePack

MK11
pack

Легкие деньги

RePack

jed

RePack

fifa19

RePack

RDR2

RePack

NEED FOR SPEED™ PAYBACK

4 сезон

9 сезон

Бесстыжие 9 сезон

Все сериалы

все сериалы на PB.wtf

RePack

FAR CRY 5
  
Magnet ссылка

ПосольССтво / Ambassada (Юлиуш Махульский / Juliusz Machulski) [2013, Польша, комедия, фантастика, военный, DVDRip,Авторский (одноголосый) piratbit.pw

ПосольССтво через торрент piratbit.pw

Размер: 1.36 GB | Добавлен: 7 лет назад | Торрент скачан:353 раза
Скачать  

09-04-2014 21:18 ПосольССтво Скачать торрент  

ПосольССтво / Ambassada

  • Год выпуска: 2013
  • Страна:Польша
  • Жанр:комедия, фантастика, военный
  • Продолжительность:01:40:54
  • Перевод:Авторский (одноголосый)[Алексей Матвеев aka Doctor Joker]
  • Субтитры: Нет
  • Режиссер: Юлиуш Махульский / Juliusz Machulski

  • В ролях:

    Магдалена Гразёвска (Melania), Бартош Порчык (Przemek / Anton), Роберт Венцкевич (Adolf Hitler / Lepke), Adam Darski (Joachim von Ribbentrop), Александра Доманьска (Ingeborg / Nela), Ksawery Szlenkier (Otto), Ян Энглерт (Oskar), Кристиан Вичорек (Ende), Fred Apke (Konsul), Роберт Яроцински (Julek), Анна Терпиловска (Ola), Pawel Ciolkosz (Staszek)

    • Описание:
      Август 2012 года. В квартире дяди Оскара в старом варшавском доме на время поселяется молодая супружеская пара. Мелания - неудавшаяся актриса, способная лишь на дешевые розыгрыши в стиле «капустников», а Пшемек - зануда и ботан, который хочет стать писателем и автором исторических сенсаций. Вместо того, чтобы предаваться любовным утехам в просторной квартирке, странная парочка по ночам слышит необычные звуки за стеной и считает, что дом полон призраков.

    Мировая премьера:18 октября 2013

    • Качество: DVDRip
    • Формат: AVI
    • Видео кодек: XviD
    • Аудио кодек:AC3
    • Видео: XviD, 720x384 (1.875), 1478 kbps, 25 fps, 0,214 bpp
    • Аудио: AC3 / 5.1 / 48 kHz / 448 kbps / 16 bit


    Код:

    General
    Complete name                            : D:\Торенты\AmbaSSada.2013.DVDRip.L1.1400MB.avi
    Format                                   : AVI
    Format/Info                              : Audio Video Interleave
    File size                                : 1.36 GiB
    Duration                                 : 1h 40mn
    Overall bit rate                         : 1 936 Kbps
    Writing application                      : VirtualDubMod 1.5.10.2 (build 2540/release)
    Writing library                          : VirtualDubMod build 2540/release

    Video
    ID                                       : 0
    Format                                   : MPEG-4 Visual
    Format profile                           : Advanced Simple@L5
    Format settings, BVOP                    : 2
    Format settings, QPel                    : No
    Format settings, GMC                     : No warppoints
    Format settings, Matrix                  : Default (H.263)
    Codec ID                                 : XVID
    Codec ID/Hint                            : XviD
    Duration                                 : 1h 40mn
    Bit rate                                 : 1 478 Kbps
    Width                                    : 720 pixels
    Height                                   : 384 pixels
    Display aspect ratio                     : 1.875
    Frame rate                               : 25.000 fps
    Color space                              : YUV
    Chroma subsampling                       : 4:2:0
    Bit depth                                : 8 bits
    Scan type                                : Progressive
    Compression mode                         : Lossy
    Bits/(Pixel*Frame)                       : 0.214
    Stream size                              : 1.04 GiB (76%)
    Writing library                          : XviD 64

    Audio
    ID                                       : 1
    Format                                   : AC-3
    Format/Info                              : Audio Coding 3
    Mode extension                           : CM (complete main)
    Codec ID                                 : 2000
    Duration                                 : 1h 40mn
    Bit rate mode                            : Constant
    Bit rate                                 : 448 Kbps
    Channel(s)                               : 6 channels
    Channel positions                        : Front: L C R, Side: L R, LFE
    Sampling rate                            : 48.0 KHz
    Bit depth                                : 16 bits
    Compression mode                         : Lossy
    Stream size                              : 323 MiB (23%)
    Alignment                                : Split accross interleaves
    Interleave, duration                     : 40 ms (1.00 video frame)
    Interleave, preload duration             : 500 ms

    Скриншоты:

    Каталог Новинок (Фильмы-трейлеры, Игры, Сериалы, Мультфильмы)

    © Оформление by Raven
    piratbit.pw



  • Скачать ПосольССтво через торрент https://pic.kartinco.top/images/6/as4gj.jpg Скачать фильм ПосольССтво через торрент бесплантно в хорошем качестве Описание:Август 2012 года. В квартире дяди Оскара в старом варшавском доме на время поселяется молодая супружеская пара. Мелания - ... 10 10 10
    Торрент: Зарегистрирован [2014-04-09 21:18] · скачан: 353 раз
    Статус: √ проверено
    Размер: 1.36 GB
    Как cкачать? Как скачать ПосольССтво через торрент | UTorrent

    28-11-2019 20:33  

    Отключить всю рекламу на сайте

    11-04-2014 17:29 ПосольССтво Скачать торрент  

    Raven писал(а):

    [qpost=undefined]Режиссер: Юлиуш Махульский / Juliusz Machulski

    Мне его киллеры очень понравились, спасибо тому кто дал заказ на рипы, фильмы просто отпадные, так что можно качать ребят, на Г точно не напоретесь)piratbit.pw



      Дорогой пользователь! Огромная просьба, поблагодарите релизера, оцените раздачу и оставьте свои комментарий, если Вы скачали ПосольССтво через торрент бесплатно! Внесите свою лепту в развитие PiratBit!
      Комментировать посты могут только пользователи прошедшие не сложную регистрацию
      Показать сообщения:    

      ПосольССтво через торрент
      Скачать бесплатно ПосольССтво
      ПосольССтво скачать торрент
      ПосольССтво смотреть онлайн
      Cкачать фильм ПосольССтво бесплатно
      ПосольССтво скачать торрент в хорошем качестве
      ПосольССтво смотреть онлайн бесплатно в хорошем качестве


      Вы не можете начинать темы
      Вы не можете отвечать на сообщения
      Вы не можете редактировать свои сообщения
      Вы не можете удалять свои сообщения
      Вы не можете голосовать в опросах
      Вы не можете прикреплять файлы к сообщениям
      Вы можете скачивать файлы