1 сезон

1 сезон

iTunes

1

КиноПоиск HD

Кинопоиск HD

iTunes

13

1 сезон

RePack

30

Новинка

ВАЖНО

ИГРА 18+

pack

RePack

MK11
pack

Легкие деньги

RePack

jed

RePack

fifa19

RePack

RDR2

RePack

NEED FOR SPEED™ PAYBACK

4 сезон

9 сезон

Бесстыжие 9 сезон

Все сериалы

все сериалы на PB.wtf

RePack

FAR CRY 5
  
Magnet ссылка

Сквозь снег / Snowpiercer (Пон Чжун Хо / Bong Joon Ho) [2014 г., Фантастика, боевик, драма, BDRip-AVC] AVO [А. Дольский] piratbit.pw

Сквозь снег через торрент piratbit.pw

Размер: 2.92 GB | Добавлен: 7 лет назад | Торрент скачан:2832 раза
Скачать  

08-04-2014 16:29 Сквозь снег Скачать торрент  

Сквозь снег / Snowpiercer
Год выпуска: 2014
Страна: Корея Южная, США, Франция, Чехия / CJ Entertainment, Moho Films, Opus Pictures, SnowPiercer, Stillking Films
Жанр: Фантастика, боевик, драма
Продолжительность: 02:05:54
Перевод: Авторский (А. Дольский)
Субтитры: Русские, английские (полные + форс.)

Режиссер: Пон Чжун Хо / Bong Joon Ho



В ролях: Крис Эванс, Сон Кан Хо, Тильда Суинтон, Джейми Белл, Октавия Спенсер, Юэн Бремнер, Элисон Пилл, Ко А Сон, Эд Харрис, Джон Хёрт

Описание: Земля. Недалекое будущее. Семнадцать лет назад на планете произошла техногенная катастрофа. Там, где раньше росли леса и цвели сады, теперь лежат снег и лед. Жизнь сохранилась лишь в гигантском поезде, без остановки мчащемся по трансевразийской магистрали. В первых вагонах состава живет правящая элита, во множестве последних — простые люди. Жизнь в хвосте поезда напоминает концлагерь — болезни, нищета, беспредел надсмотрщиков. Но именно здесь из среды униженных и оскорбленных восстает человек, способный восстановить справедливость. Однако у каждой благородной идеи есть своя темная сторона, и любая революция пожирает своих детей.

Качество: BDRip-AVC
Формат: MKV
Видео кодек: H.264
Аудио кодек: AC3
Видео: 1060x572 (1,85:1), 23,976 fps, 2418 Кbps, 0.166 bit/pixel
Аудио#1: 48 kHz, AC3 Dolby Digital, 3/2 (L,C,R,l,r) + LFE ch, 448.00 kbps | RUS
Аудио#2: 48 kHz, AC3 Dolby Digital, 3/2 (L,C,R,l,r) + LFE ch, 448.00 kbps | ENG

Релиз группы:
Автор рипа: potroks

Общее
Уникальный идентификатор : 183576984052777762145469684333278862864 (0x8A1BA41D14F61A2C89AF7316E28B1E10)
Полное имя : Skvoz'.Sneg.2013.DUAL.BDRip.x264.-HELLYWOOD.mkv
Формат : Matroska
Версия формата : Version 4 / Version 2
Размер файла : 2,92 Гбайт
Продолжительность : 2 ч. 5 м.
Общий поток : 3315 Кбит/сек
Название фильма : HELLYWOOD - rip by potroks
Дата кодирования : UTC 2014-04-06 08:14:35
Программа кодирования : mkvmerge v5.9.0 ('On The Loose') built on Dec 15 2012 16:39:58
Библиотека кодирования : libebml v1.3.0 + libmatroska v1.4.0

Видео
Идентификатор : 1
Формат : AVC
Формат/Информация : Advanced Video Codec
Профиль формата : High@L4.1
Параметр CABAC формата : Да
Параметр ReFrames формата : 10 кадров
Идентификатор кодека : V_MPEG4/ISO/AVC
Продолжительность : 2 ч. 5 м.
Битрейт : 2418 Кбит/сек
Ширина : 1060 пикселей
Высота : 572 пикселя
Соотношение сторон : 1,85:1
Режим частоты кадров : Постоянный
Частота кадров : 23,976 кадра/сек
Цветовое пространство : YUV
Субдискретизация насыщенности : 4:2:0
Битовая глубина : 8 бит
Тип развёртки : Прогрессивная
Бит/(Пиксели*Кадры) : 0.166
Размер потока : 2,07 Гбайт (71%)
Заголовок : Snowpiercer
Библиотека кодирования : x264 core 130 r2273 b3065e6
Настройки программы : cabac=1 / ref=10 / deblock=1:-3:-3 / analyse=0x3:0x133 / me=umh / subme=11 / psy=1 / psy_rd=0.96:0.00 / mixed_ref=1 / me_range=32 / chroma_me=1 / trellis=2 / 8x8dct=1 / cqm=0 / deadzone=21,11 / fast_pskip=0 / chroma_qp_offset=-2 / threads=9 / lookahead_threads=2 / sliced_threads=0 / nr=0 / decimate=0 / interlaced=0 / bluray_compat=0 / constrained_intra=0 / bframes=11 / b_pyramid=2 / b_adapt=2 / b_bias=0 / direct=3 / weightb=1 / open_gop=0 / weightp=2 / keyint=250 / keyint_min=23 / scenecut=40 / intra_refresh=0 / rc_lookahead=60 / rc=2pass / mbtree=0 / bitrate=2418 / ratetol=1.0 / qcomp=0.70 / qpmin=0 / qpmax=69 / qpstep=4 / cplxblur=20.0 / qblur=0.5 / vbv_maxrate=20000 / vbv_bufsize=20000 / nal_hrd=none / ip_ratio=1.35 / pb_ratio=1.25 / aq=1:0.90
Язык : Korean
Default : Да
Forced : Нет

Аудио #1
Идентификатор : 2
Формат : AC-3
Формат/Информация : Audio Coding 3
Расширение режима : CM (complete main)
Параметр Endianness формата : Big
Идентификатор кодека : A_AC3
Продолжительность : 2 ч. 5 м.
Вид битрейта : Постоянный
Битрейт : 448 Кбит/сек
Каналы : 6 каналов
Расположение каналов : Front: L C R, Side: L R, LFE
Частота : 48,0 КГц
Битовая глубина : 16 бит
Метод сжатия : С потерями
Размер потока : 403 Мбайт (14%)
Заголовок : AVO | DD 5.1 @ 448 kbps - А. Дольский
Язык : Russian
Default : Да
Forced : Нет

Аудио #2
Идентификатор : 3
Формат : AC-3
Формат/Информация : Audio Coding 3
Расширение режима : CM (complete main)
Параметр Endianness формата : Big
Идентификатор кодека : A_AC3
Продолжительность : 2 ч. 5 м.
Вид битрейта : Постоянный
Битрейт : 448 Кбит/сек
Каналы : 6 каналов
Расположение каналов : Front: L C R, Side: L R, LFE
Частота : 48,0 КГц
Битовая глубина : 16 бит
Метод сжатия : С потерями
Размер потока : 403 Мбайт (14%)
Заголовок : Original | DD 5.1 @ 448 kbps
Язык : English
Default : Нет
Forced : Нет

Текст #1
Идентификатор : 4
Формат : UTF-8
Идентификатор кодека : S_TEXT/UTF8
Идентификатор кодека/Информация : UTF-8 Plain Text
Язык : Russian
Default : Нет
Forced : Нет

Текст #2
Идентификатор : 5
Формат : UTF-8
Идентификатор кодека : S_TEXT/UTF8
Идентификатор кодека/Информация : UTF-8 Plain Text
Заголовок : Forced
Язык : English
Default : Нет
Forced : Нет

Текст #3
Идентификатор : 6
Формат : UTF-8
Идентификатор кодека : S_TEXT/UTF8
Идентификатор кодека/Информация : UTF-8 Plain Text
Язык : English
Default : Нет
Forced : Нет

Меню
00:08:34.931 : en:(01)00:08:34:931
00:21:25.534 : en:(02)00:21:25:534
00:29:13.877 : en:(03)00:29:13:877
00:39:08.512 : en:(04)00:39:08:512
00:47:23.549 : en:(05)00:47:23:549
00:56:42.565 : en:(06)00:56:42:565
01:06:52.633 : en:(07)01:06:52:633
01:15:16.553 : en:(08)01:15:16:553
01:23:46.604 : en:(09)01:23:46:604
01:36:24.111 : en:(10)01:36:24:111
01:52:12.726 : en:(11)01:52:12:726
02:05:52.711 : en:(12)02:05:52:711

piratbit.pw



Скачать Сквозь снег через торрент https://pic.kartinco.top/new/img/2014-07/09/q9zo6u2ed0gn45e8u19e01c7x.png Скачать фильм Сквозь снег через торрент бесплантно в хорошем качестве Описание: Земля. Недалекое будущее. Семнадцать лет назад на планете произошла техногенная катастрофа. Там, где раньше росли леса и цвели ... 9.5 10 43
Info! Золотая раздача, скачанное не засчитывается.
Торрент: Зарегистрирован [2014-04-08 16:29] · скачан: 2 832 раз
Статус: √ проверено
Размер: 2.92 GB
Как cкачать? Как скачать Сквозь снег через торрент | UTorrent

% Раздел Тема Автор DL S | L
Зарубежные сериалы [ 24.45 GB ] Сквозь снег / Snowpiercer / Сезон: 2 / Серии: 1-10 из 10 [2021 WEBRip 720p] MVO [NewStudio] bober100 Скачать
3 | 0
Зарубежные сериалы [ 81.71 GB ] Сквозь снег / Snowpiercer / Сезон: 1 / Серии: 1-10 из 10 [2020 UHD WEB-DL 2160p ] DUB [Пифагор / Netflix] +MVO [LostFilm] bober100 Скачать
2 | 0
Зарубежные сериалы [ 7.91 GB ] Сквозь снег / Snowpiercer / Сезон: 2 / Серии: 1-10 из 10 [2021 WEB-DLRip] - [Пифагор / Netflix] Twi7ter Скачать
192 | 105
Зарубежные сериалы [ 33.77 GB ] Сквозь снег / Snowpiercer / Сезон: 2 / Серии: 1-10 из 10 [2021 WEB-DL 1080p] killermax2013 Скачать
8 | 4
Зарубежные сериалы [ 7.43 GB ] Сквозь снег / Snowpiercer / Сезон: 2 / Серии 1-10 из 10 [2021 WEB-DLRip-AVC] MVO [LostFilm] GEKADOL Скачать
10 | 3
Зарубежные сериалы [ 8.93 GB ] Сквозь снег / Snowpiercer / Сезон: 2 / Серии: 1-10 из 10 [2021 WEB-DLRip] DUB [Пифагор / Netflix] bober100 Скачать
5 | 0
Фильмы 2013 [DVDrip, WEB-DLRip, HDrip] [ 3.26 GB ] Сквозь снег / Snowpiercer [2013 BDRip-AVC] MVO bober100 Скачать
1 | 0


Последний раз редактировалось: potroks (2014-07-09 07:11), всего редактировалось 1 раз

28-11-2019 20:33  

Отключить всю рекламу на сайте

08-04-2014 17:58 Сквозь снег Скачать торрент  

как фильмец?piratbit.pw



08-04-2014 18:28 Сквозь снег Скачать торрент  

отличный фильм)piratbit.pw



08-04-2014 19:16 Сквозь снег Скачать торрент  

Уже посмотрел, всем советую!piratbit.pw



09-04-2014 13:38 Сквозь снег Скачать торрент  

фильм понравилсяpiratbit.pw



09-04-2014 21:52 Сквозь снег Скачать торрент  

Мы все сидим в этом поезде товарищи =)piratbit.pw



12-04-2014 14:28 Сквозь снег Скачать торрент  

АВТАРСКИЙЙЙЙЙ
НО ФИЛЬМ ОЧЕНЬ ХОРОШИЙ 5+piratbit.pw



12-04-2014 18:39 Сквозь снег Скачать торрент  

rimsdub писал(а):

АВТАРСКИЙЙЙЙЙ
НО ФИЛЬМ ОЧЕНЬ ХОРОШИЙ 5+

НО , по моему затянут. а сам ФИЛЬМ хорош :))))piratbit.pw



12-04-2014 18:52 Сквозь снег Скачать торрент  

Ого, оценки и отзывы на кинопоиске вдохновляют. А еще Фильм был полностью отснят в студии Barrandov в Праге, в Чехии.))piratbit.pw



16-04-2014 13:50 Сквозь снег Скачать торрент  

стоит посмотретьpiratbit.pw



06-05-2014 18:02 Сквозь снег Скачать торрент  

ебаааааать я такого бреда не видел вообще никогда за всю жизнь. Это один раз но стоит увидеть. Такое ощущение что над сценарием думали пьяные обдолбанные укуренные аннунаки.piratbit.pw



01-11-2014 14:42 Сквозь снег Скачать торрент  

Фильм оставляющий впечатления! мне очень понравился хоть и ощущение стремное после негоpiratbit.pw



    Дорогой пользователь! Огромная просьба, поблагодарите релизера, оцените раздачу и оставьте свои комментарий, если Вы скачали Сквозь снег через торрент бесплатно! Внесите свою лепту в развитие PiratBit!
    Комментировать посты могут только пользователи прошедшие не сложную регистрацию
    Показать сообщения:    

    Сквозь снег через торрент
    Скачать бесплатно Сквозь снег
    Сквозь снег скачать торрент
    Сквозь снег смотреть онлайн
    Cкачать фильм Сквозь снег бесплатно
    Сквозь снег скачать торрент в хорошем качестве
    Сквозь снег смотреть онлайн бесплатно в хорошем качестве


    Вы не можете начинать темы
    Вы не можете отвечать на сообщения
    Вы не можете редактировать свои сообщения
    Вы не можете удалять свои сообщения
    Вы не можете голосовать в опросах
    Вы не можете прикреплять файлы к сообщениям
    Вы можете скачивать файлы