1 сезон

3 сезон

iTunes

1

iTunes

DUB Netflix

iTunes

13

1 сезон

RePack

30

Deluxe

pack

Легкие деньги

ВАЖНО

ИГРА 18+

pack

RePack

MK11

RePack

jed

RePack

fifa19

RePack

RDR2

RePack

NEED FOR SPEED™ PAYBACK

4 сезон

9 сезон

Бесстыжие 9 сезон

Все сериалы

все сериалы на PB.wtf

RePack

FAR CRY 5

Anonymous, добрый вечер, мы не успеваем до 1 числа собрать деньги на оплату серверов, помогите нам пожалуйста в это трудное время. В качестве благодарности мы отключим Вам всю рекламу на сайте (укажите свой ник в строку Ваше имя)!

×
  
Magnet ссылка

20 футов под землёй: И пала тьма / 20 Ft Below: The Darkness Descending (Марк Клебанофф) [2014 г., триллер, WEB-DLRip, Любительский двухголосый] piratbit.pw

20 футов под землёй: И пала тьма через торрент piratbit.pw

Размер: 2.06 GB | Добавлен: 7 лет 2 мес. назад | Торрент скачан:387 раз
Скачать  

07-04-2014 17:11 20 футов под землёй: И пала тьма Скачать торрент  

20 футов под землёй: И пала тьма / 20 Ft Below: The Darkness Descending
Год выпуска: 2014
Страна: США / Odyssey Motion Pictures, Blue Dragon Entertainment
Жанр: триллер
Продолжительность: 01:36:04
Перевод: Любительский двухголосый (DeadSno & den904)

Режиссер: Марк Клебанофф

В ролях: Дэнни Трехо, Кинга Филиппс, Фрэнк Крюгер, Джон Хенниган, Тиффани Адамс, Кристофф Ст. Джон, Луис Мэндилор, Майкл Рене Уолтон, Даррен Дарнбаро, Чейз Остин

Описание: Под улицами Нью-Йорка, в тени заброшенных тоннелей метро, скрыт мрачный и опасный мир. Когда молодая девушка-режиссер отправляется в эти тоннели, она обнаруживает там нечто пострашнее тьмы.

Качество: WEB-DLRip
Формат: AVI
Видео кодек: XviD
Аудио кодек: AC3
Видео: 720x400 (1.80:1), 23.976 fps, XviD build 50 ~2873 kbps avg, 0.42 bit/pixel
Аудио: 48 kHz, AC3 Dolby Digital, 2/0 (L,R) ch, ~192 kbps

скриншот   скриншот   скриншот   скриншот   скриншот  

Общее
Полное имя : H:\кино\20.Ft.Below.The.Darkness.Descending.2014.WEB-DLRip.avi
Формат : AVI
Формат/Информация : Audio Video Interleave
Профиль формата : OpenDML
Размер файла : 2,06 Гбайт
Продолжительность : 1 ч. 36 м.
Общий поток : 3073 Кбит/сек
Программа кодирования : VirtualDubMod 1.5.10.3 | www.virtualdub-fr.org || (build 2550/release)
Библиотека кодирования : VirtualDubMod build 2550/release

Видео
Идентификатор : 0
Формат : MPEG-4 Visual
Профиль формата : Advanced Simple@L5
Параметр BVOP формата : 2
Параметр QPel формата : Нет
Параметр GMC формата : Без точки перехода
Параметр матрицы формата : Default (H.263)
Идентификатор кодека : XVID
Идентификатор кодека/Подсказка : XviD
Продолжительность : 1 ч. 36 м.
Битрейт : 2868 Кбит/сек
Ширина : 720 пикселей
Высота : 400 пикселей
Соотношение сторон : 16:9
Частота кадров : 23,976 кадра/сек
Цветовое пространство : YUV
Субдискретизация насыщенности : 4:2:0
Битовая глубина : 8 бит
Тип развёртки : Прогрессивная
Метод сжатия : С потерями
Бит/(Пиксели*Кадры) : 0.415
Размер потока : 1,92 Гбайт (93%)
Библиотека кодирования : XviD 1.2.1 (UTC 2008-12-04)

Аудио
Идентификатор : 1
Формат : AC-3
Формат/Информация : Audio Coding 3
Расширение режима : CM (complete main)
Параметр Endianness формата : Big
Идентификатор кодека : 2000
Продолжительность : 1 ч. 36 м.
Вид битрейта : Постоянный
Битрейт : 192 Кбит/сек
Каналы : 2 канала
Расположение каналов : Front: L R
Частота : 48,0 КГц
Битовая глубина : 16 бит
Метод сжатия : С потерями
Размер потока : 132 Мбайт (6%)
Выравнивание : Разделение по промежуткам
Продолжительность промежутка : 42 мс. (1,00 видеокадр)
Время предзагрузки промежутка : 500 мс.

piratbit.pw



Скачать 20 футов под землёй: И пала тьма через торрент https://pic1.kartinco.top/images/61/9rw5g.jpg Скачать фильм 20 футов под землёй: И пала тьма через торрент бесплантно в хорошем качестве Описание: Под улицами Нью-Йорка, в тени заброшенных тоннелей метро, скрыт мрачный и опасный мир. Когда молодая девушка-режиссер ... 8.9 10 11
Info! Золотая раздача, скачанное не засчитывается.
Торрент: Зарегистрирован [2014-04-07 17:11] · скачан: 387 раз
Статус: √ проверено
Размер: 2.06 GB
Как cкачать? Как скачать 20 футов под землёй: И пала тьма через торрент | UTorrent

% Раздел Тема Автор DL S | L
Фильмы 2014 (Звук TS, Cam, VO, DVO) [ 1.32 GB ] 20 футов под землёй: И пала тьма / 20 Ft Below: The Darkness Descending [2014 WEB-DLRipЛюбительский [den904 DeadSno] Ворон Скачать
1 | 0

28-11-2019 20:33  

Отключить всю рекламу на сайте

07-04-2014 17:48 20 футов под землёй: И пала тьма Скачать торрент  

Settlers
спс за золото, автору за киношку с мачете!piratbit.pw



    Дорогой пользователь! Огромная просьба, поблагодарите релизера, оцените раздачу и оставьте свои комментарий, если Вы скачали 20 футов под землёй: И пала тьма через торрент бесплатно! Внесите свою лепту в развитие PiratBit!
    Комментировать посты могут только пользователи прошедшие не сложную регистрацию
    Показать сообщения:    

    20 футов под землёй: И пала тьма через торрент
    Скачать бесплатно 20 футов под землёй: И пала тьма
    20 футов под землёй: И пала тьма скачать торрент
    20 футов под землёй: И пала тьма смотреть онлайн
    Cкачать фильм 20 футов под землёй: И пала тьма бесплатно
    20 футов под землёй: И пала тьма скачать торрент в хорошем качестве
    20 футов под землёй: И пала тьма смотреть онлайн бесплатно в хорошем качестве


    Вы не можете начинать темы
    Вы не можете отвечать на сообщения
    Вы не можете редактировать свои сообщения
    Вы не можете удалять свои сообщения
    Вы не можете голосовать в опросах
    Вы не можете прикреплять файлы к сообщениям
    Вы можете скачивать файлы