1 сезон

1 сезон

iTunes

1

КиноПоиск HD

Кинопоиск HD

iTunes

13

1 сезон

RePack

30

Новинка

ВАЖНО

ИГРА 18+

pack

RePack

MK11
pack

Легкие деньги

RePack

jed

RePack

fifa19

RePack

RDR2

RePack

NEED FOR SPEED™ PAYBACK

4 сезон

9 сезон

Бесстыжие 9 сезон

Все сериалы

все сериалы на PB.wtf

RePack

FAR CRY 5
  
Magnet ссылка

Королевство / The Kingdom (Питер Берг) [2007, боевик, триллер, драма, BDRip] 3x[AVO] (Гаврилов, Живов, Немахов) + [Dub] piratbit.pw

Королевство через торрент piratbit.pw

Размер: 2.35 GB | Добавлен: 7 лет назад | Торрент скачан:114 раз
Скачать  

07-04-2014 08:48 Королевство Скачать торрент  

Королевство / The Kingdom «Под давлением. Под огнем. В цейтноте.»Год выпуска: 2007
Выпущено: США, Германия / Universal Pictures, Relativity Media
Жанр: боевик, триллер, драма
Продолжительность: 01:49:45
Перевод 1: Авторский (одноголосый, закадровый) [Гаврилов]
Перевод 2: Авторский (одноголосый, закадровый) [Живов]
Перевод 3: Авторский (одноголосый, закадровый) [Немахов]
Перевод 4: Профессиональный (полное дублирование) Дубляж Blu-Ray CEE
Cубтитры: нет

Режиссер: Питер Берг / Peter Berg

В ролях: Джейми Фокс (Ronald Fleury), Крис Купер (Grant Sykes), Дженнифер Гарнер (Janet Mayes), Джейсон Бейтман (Adam Leavitt), Ашраф Бархом (Colonel Faris Al Ghazi), Али Сулиман (Sergeant Haytham), Джереми Пивен (Damon Schmidt), Ричард Дженкинс (Robert Grace), Дэнни Хьюстон (Gideon Young), Кайл Чандлер (Francis Manner)

Описание:
Драматический боевик на острую нынче тему конфликта на Ближнем Востоке. В этот трудный во всех отношениях регион отправляется команда из четверых профессиональных агентов ФБР, чтобы расследовать теракт, произошедший на американском объекте в этой стране, и найти некого Абу Хамза, предположительно главу террористов. Сразу становится ясно, что миссия будет не из легких. Однако американцы находят общий язык с представителем местной полиции, который будет по возможности оказывать команде помощь в установлении справедливости в этой чужой им стране.



Качество: BDRip
Формат: AVI
Видео кодек: XviD
Аудио кодек: AC3
Видео: 720x304 (2.35:1), 23.976 fps, XviD build 50 ~1898 kbps avg, 0.37 bit/pixel
Аудио : 48 kHz, AC3 Dolby Digital, 3/2 (L,C,R,l,r) + LFE ch, ~384 kbps - [Гаврилов]
Аудио #2: 48 kHz, AC3 Dolby Digital, 3/2 (L,C,R,l,r) + LFE ch, ~384 kbps - [Живов]
Аудио #3: 48 kHz, AC3 Dolby Digital, 2/0 (L,R) ch, ~192 kbps - [Немахов]
Аудио #4: 48 kHz, AC3 Dolby Digital, 2/0 (L,R) ch, ~160 kbps - [Dub]

Автор рипа -- DENON2507
General
Complete name : E:\INTERNET\The.Kingdom. 2007.BDRip.avi
Format : AVI
Format/Info : Audio Video Interleave
Format profile : OpenDML
File size : 2.35 GiB
Duration : 1h 50mn
Overall bit rate : 3 043 Kbps
Writing application : VirtualDubMod 1.5.10.3 (build 2550/release)
Writing library : VirtualDubMod build 2550/release

Video
ID : 0
Format : MPEG-4 Visual
Format profile : Advanced Simple@L5
Format settings, BVOP : 2
Format settings, QPel : No
Format settings, GMC : No warppoints
Format settings, Matrix : Custom
Codec ID : XVID
Codec ID/Hint : XviD
Duration : 1h 50mn
Bit rate : 1 898 Kbps
Width : 720 pixels
Height : 304 pixels
Display aspect ratio : 2.35:1
Frame rate : 23.976 fps
Color space : YUV
Chroma subsampling : 4:2:0
Bit depth : 8 bits
Scan type : Progressive
Compression mode : Lossy
Bits/(Pixel*Frame) : 0.362
Stream size : 1.46 GiB (62%)
Writing library : XviD 1.2.1 (UTC 2008-12-04)

Audio #1
ID : 1
Format : AC-3
Format/Info : Audio Coding 3
Mode extension : CM (complete main)
Codec ID : 2000
Duration : 1h 49mn
Bit rate mode : Constant
Bit rate : 384 Kbps
Channel(s) : 6 channels
Channel positions : Front: L C R, Side: L R, LFE
Sampling rate : 48.0 KHz
Bit depth : 16 bits
Compression mode : Lossy
Stream size : 301 MiB (13%)
Alignment : Split accross interleaves
Interleave, duration : 42 ms (1.01 video frame)
Interleave, preload duration : 500 ms

Audio #2
ID : 2
Format : AC-3
Format/Info : Audio Coding 3
Mode extension : CM (complete main)
Codec ID : 2000
Duration : 1h 50mn
Bit rate mode : Constant
Bit rate : 384 Kbps
Channel(s) : 6 channels
Channel positions : Front: L C R, Side: L R, LFE
Sampling rate : 48.0 KHz
Bit depth : 16 bits
Compression mode : Lossy
Stream size : 303 MiB (13%)
Alignment : Split accross interleaves
Interleave, duration : 42 ms (1.00 video frame)
Interleave, preload duration : 500 ms

Audio #3
ID : 3
Format : AC-3
Format/Info : Audio Coding 3
Mode extension : CM (complete main)
Codec ID : 2000
Duration : 1h 49mn
Bit rate mode : Constant
Bit rate : 192 Kbps
Channel(s) : 2 channels
Channel positions : Front: L R
Sampling rate : 48.0 KHz
Bit depth : 16 bits
Compression mode : Lossy
Stream size : 151 MiB (6%)
Alignment : Split accross interleaves
Interleave, duration : 42 ms (1.01 video frame)
Interleave, preload duration : 500 ms

Audio #4
ID : 4
Format : AC-3
Format/Info : Audio Coding 3
Mode extension : CM (complete main)
Codec ID : 2000
Duration : 1h 49mn
Bit rate mode : Constant
Bit rate : 160 Kbps
Channel(s) : 2 channels
Channel positions : Front: L R
Sampling rate : 48.0 KHz
Bit depth : 16 bits
Compression mode : Lossy
Stream size : 126 MiB (5%)
Alignment : Split accross interleaves
Interleave, duration : 42 ms (1.01 video frame)
Interleave, preload duration : 500 ms
piratbit.pw



Скачать Королевство через торрент http://i49.fastpic.ru/big/2013/0801/94/c50cfb474fe1e2c5e8f7c6b04fea5594.png Скачать фильм Королевство через торрент бесплантно в хорошем качестве Описание: Драматический боевик на острую нынче тему конфликта на Ближнем Востоке. В этот трудный во всех отношениях регион отправляется ... 10 10 5
Торрент: Зарегистрирован [2014-04-07 08:48] · скачан: 114 раз
Статус: √ проверено
Размер: 2.35 GB
Как cкачать? Как скачать Королевство через торрент | UTorrent

% Раздел Тема Автор DL S | L
Научно-популярные фильмы [ 5.08 GB ] Затерянное королевство пиратов / The Lost Pirate Kingdom / Сезон: 1 / Серии 1-6 из 6 [2021 Документальный WEBRip 1080p] [MVO] killermax2013 Скачать
7 | 1
Зарубежные сериалы [ 19.59 GB ] Последнее Королевство / The Last Kingdom / Сезон: 2 / Серии 1-8 из 8 [2017 Исторический WEB-DLRip 1080] MVO [BaibaKo] Dusster Скачать
1 | 0
3D Мультфильмы [ 14.27 GB ] Белокурая невеста из Лунного Королевства в 3Д / The White Haired Witch of Lunar Kingdom 3D [2014 Мело BDRip 1080p] OverUnder / Вертикальная стереопара serega768 Скачать
1 | 0
Зарубежные сериалы [ 30.35 GB ] Последнее королевство / The Last Kingdom / Сезон: 4 / Серии: 1-10 из 10 [2020 история WEB-DL 1080p] MVO [Lostfilm] bober100 Скачать
1 | 0
Зарубежные сериалы [ 9.69 GB ] Десятое королевство / The 10th Kingdom / Сезон: 1 / Серии: 1-5 из 5 [2000 BDRip AVC] MVO Леонид Ильич Скачать
1 | 0
Зарубежные сериалы [ 7.58 GB ] Последнее королевство / The Last Kingdom / Сезон: 4 / Серии: 1-10 из 10 [2020 история WEB-DLRip] MVO [Lostfilm] bober100 Скачать
2 | 0
Зарубежные сериалы [ 12.99 GB ] Последнее королевство / The Last Kingdom / Сезон: 4 / Серии: 1-10 из 10 [2020 история WEB-DL 720p] MVO [Lostfilm] bober100 Скачать
1 | 0

28-11-2019 20:33  

Отключить всю рекламу на сайте

    Дорогой пользователь! Огромная просьба, поблагодарите релизера, оцените раздачу и оставьте свои комментарий, если Вы скачали Королевство через торрент бесплатно! Внесите свою лепту в развитие PiratBit!
    Комментировать посты могут только пользователи прошедшие не сложную регистрацию
    Показать сообщения:    

    Королевство через торрент
    Скачать бесплатно Королевство
    Королевство скачать торрент
    Королевство смотреть онлайн
    Cкачать фильм Королевство бесплатно
    Королевство скачать торрент в хорошем качестве
    Королевство смотреть онлайн бесплатно в хорошем качестве


    Вы не можете начинать темы
    Вы не можете отвечать на сообщения
    Вы не можете редактировать свои сообщения
    Вы не можете удалять свои сообщения
    Вы не можете голосовать в опросах
    Вы не можете прикреплять файлы к сообщениям
    Вы можете скачивать файлы