1 сезон

1 сезон

iTunes

1

КиноПоиск HD

Кинопоиск HD

iTunes

13

1 сезон

RePack

30

Новинка

ВАЖНО

ИГРА 18+

pack

RePack

MK11
pack

Легкие деньги

RePack

jed

RePack

fifa19

RePack

RDR2

RePack

NEED FOR SPEED™ PAYBACK

4 сезон

9 сезон

Бесстыжие 9 сезон

Все сериалы

все сериалы на PB.wtf

RePack

FAR CRY 5
  
Magnet ссылка

Сквозь снег / Snowpiercer (Пон Чжун Хо / Joon-ho Bong) [2013, Корея Южная, США, Франция, Чехия, фантастика, боевик, драма, BDRip-AVC] AVO (Дольский) + AVO (Есарев) + Eng piratbit.pw

Сквозь снег через торрент piratbit.pw

Раздают: 1 [ 0 KB/s ]
Размер: 2.97 GB | Добавлен: 7 лет назад | Торрент скачан:415 раз
Скачать  

06-04-2014 09:36 Сквозь снег Скачать торрент  

Сквозь снег
Snowpiercer

«AD 2031: the passengers in the train are the only survivors on Earth»




Страна: Корея Южная, США, Франция, Чехия
Студия: CJ Entertainment, Moho Films, Opus Pictures, SnowPiercer, Stillking Films
Жанр: фантастика, боевик, драма
Год выпуска: 2013
Продолжительность: 02:05:54

Перевод: Авторский (одноголосый, закадровый) [А.Дольский]
Авторский (одноголосый, закадровый) [Д.Есарев]
Cубтитры: русские, английские
Оригинальная аудиодорожка: английский

Режиссер:
Пон Чжун Хо / Joon-ho Bong

В ролях:
Крис Эванс, Сон Кан Хо, Тильда Суинтон, Джейми Белл, Октавия Спенсер, Юэн Бремнер, Элисон Пилл, Ко А Сон, Эд Харрис, Джон Хёрт

Описание:
Земля. Недалекое будущее. Семнадцать лет назад на планете произошла техногенная катастрофа. Там, где раньше росли леса и цвели сады, теперь лежат снег и лед. Жизнь сохранилась лишь в гигантском поезде, без остановки мчащемся по трансевразийской магистрали. В первых вагонах состава живет правящая элита, во множестве последних — простые люди. Жизнь в хвосте поезда напоминает концлагерь — болезни, нищета, беспредел надсмотрщиков. Но именно здесь из среды униженных и оскорбленных восстает человек, способный восстановить справедливость. Однако у каждой благородной идеи есть своя темная сторона, и любая революция пожирает своих детей.


Релиз:

Автор рипа: Stalker oK

Сэмпл: multi-up

Качество видео: BDRip-AVC [Snowpiercer 2013 Blu-ray FRE 1080p AVC DTS-HD MA 5.1-WiHD]
Формат видео: MKV
Видео кодек: AVC
Аудио кодек: AAC
Видео: 2038 Кбит/сек, 960*518 (1,853), в 23,976 кадр/сек, AVC
Аудио #1: Russian, 448 Кбит/сек, 48,0 КГц, 16 бит, 6 канала(ов), AC-3 А.Дольский
Аудио #2: Russian, 448 Кбит/сек, 48,0 КГц, 16 бит, 6 канала(ов), AC-3 Д.Есарев (отдельно)
Аудио #3: English, 448 Кбит/сек, 48,0 КГц, 16 бит, 6 канала(ов) (отдельно)
Общее
Уникальный идентификатор : 244966082154608906393805099028812991924 (0xB84AC0551224B257829EF265602D0DB4)
Полное имя : F:\Temp\Сквозь снег\Skvoz.sneg.2013.BDRip-AVC\Skvoz.sneg.2013.BDRip-AVC.AVO.2.18...stalkerok.new-team.mkv
Формат : Matroska
Размер файла : 2,18 Гбайт
Продолжительность : 2 ч. 5 м.
Общий поток : 2484 Кбит/сек
Название фильма : Snowpiercer (2013) (New-Team) (Rip by Stalker oK)
Дата кодирования : UTC 2014-04-06 09:09:33
Программа кодирования : mkvmerge v6.5.0 ('Isn't she lovely') built on Oct 20 2013 12:50:05
Библиотека кодирования : libebml v1.3.0 + libmatroska v1.4.1

Видео
Идентификатор : 1
Формат : AVC
Формат/Информация : Advanced Video Codec
Профиль формата : High@L4.1
Параметр CABAC формата : Да
Параметр ReFrames формата : 10 кадры
Идентификатор кодека : V_MPEG4/ISO/AVC
Продолжительность : 2 ч. 5 м.
Битрейт : 2038 Кбит/сек
Ширина : 960 пикс.
Высота : 518 пикс.
Соотношение сторон : 1,853
Частота кадров : 23,976 кадр/сек
Цветовое пространство : YUV
Подвыборка цветности : 4:2:0
Битовая глубина : 8 бит
Тип развёртки : Прогрессивная
Бит/(Пиксели*Кадры) : 0.171
Размер потока : 1,75 Гбайт (80%)
Библиотека кодирования : x264 core 138 r2358 9e941d1
Настройки программы : cabac=1 / ref=10 / deblock=1:-2:-1 / analyse=0x3:0x133 / me=umh / subme=11 / psy=1 / psy_rd=1.00:0.10 / mixed_ref=1 / me_range=48 / chroma_me=1 / trellis=2 / 8x8dct=1 / cqm=0 / deadzone=21,11 / fast_pskip=0 / chroma_qp_offset=-3 / threads=6 / lookahead_threads=1 / sliced_threads=0 / nr=0 / decimate=0 / interlaced=0 / bluray_compat=0 / constrained_intra=0 / bframes=11 / b_pyramid=2 / b_adapt=2 / b_bias=0 / direct=3 / weightb=1 / open_gop=0 / weightp=2 / keyint=240 / keyint_min=23 / scenecut=40 / intra_refresh=0 / rc_lookahead=80 / rc=2pass / mbtree=1 / bitrate=2038 / ratetol=2.0 / qcomp=0.65 / qpmin=0 / qpmax=69 / qpstep=4 / cplxblur=20.0 / qblur=0.5 / vbv_maxrate=30000 / vbv_bufsize=35000 / nal_hrd=none / ip_ratio=1.40 / aq=2:1.00

Аудио
Идентификатор : 2
Формат : AC-3
Формат/Информация : Audio Coding 3
Расширение режима : CM (complete main)
Идентификатор кодека : A_AC3
Продолжительность : 2 ч. 5 м.
Вид битрейта : Постоянный
Битрейт : 448 Кбит/сек
Канал(ы) : 6 канала(ов)
Расположение каналов : Front: L C R, Side: L R, LFE
Частота : 48,0 КГц
Битовая глубина : 16 бит
Метод сжатия : С потерями
Размер потока : 403 Мбайт (18%)
Заголовок : AC3 5.1 @ 448 kbps А.Дольский
Язык : Russian

Текст #1
Идентификатор : 3
Формат : UTF-8
Идентификатор кодека : S_TEXT/UTF8
Идентификатор кодека/Информация : UTF-8 Plain Text
Заголовок : notabenoid
Язык : Russian

Текст #2
Идентификатор : 4
Формат : UTF-8
Идентификатор кодека : S_TEXT/UTF8
Идентификатор кодека/Информация : UTF-8 Plain Text
Язык : English

Меню
00:00:00.000 : :00:00:00.000
00:08:34.931 : :00:08:34.931
00:21:25.534 : :00:21:25.534
00:29:13.877 : :00:29:13.877
00:39:08.512 : :00:39:08.512
00:47:23.549 : :00:47:23.549
00:56:42.565 : :00:56:42.565
01:06:52.633 : :01:06:52.633
01:15:16.553 : :01:15:16.553
01:23:46.604 : :01:23:46.604
01:36:24.111 : :01:36:24.111
01:52:12.725 : :01:52:12.725
piratbit.pw



Скачать Сквозь снег через торрент http://cs540103.vk.me/c608827/v608827651/5b76/eSKhi51eyC0.jpg Скачать фильм Сквозь снег через торрент бесплантно в хорошем качестве Описание:Земля. Недалекое будущее. Семнадцать лет назад на планете произошла техногенная катастрофа. Там, где раньше росли леса и цвели ... 8.2 10 10
Торрент: Зарегистрирован [2014-04-06 09:36] · скачан: 415 раз
Статус: √ проверено
Размер: 2.97 GB
Как cкачать? Как скачать Сквозь снег через торрент | UTorrent

% Раздел Тема Автор DL S | L
Фильмы с украинским озвучиванием [ 36.52 GB ] Сквозь снег / Snowpiercer [2013 BDRemux] [1080p] [Ukr MVO] + [Eng] + [Sub] killermax2013 Скачать
1 | 0
Фильмы с авторской озвучкой [ 1.48 GB ] Сквозь снег / Snowpiercer [2013 Корея Южная Чехия BDRip-AVC] AVO + AVO + Eng sokol_ok Скачать
2 | 0
Фильмы с авторской озвучкой [ 1.44 GB ] Сквозь снег / Snowpiercer [2013 BDRip-AVC] [AVO] + [Sub] killermax2013 Скачать
1 | 0

28-11-2019 20:33  

Отключить всю рекламу на сайте

06-04-2014 09:42 Сквозь снег Скачать торрент  

Все хвалят фильм, и рейтинг неплохой.Надо будет глянуть!piratbit.pw



06-04-2014 10:41 Сквозь снег Скачать торрент  

Ещё бы норм дубляж и вообще конфетка фильм будет piratbit.pw



06-04-2014 11:05 Сквозь снег Скачать торрент  

6rayon писал(а):

704155Ещё бы норм дубляж и вообще конфетка фильм будет

Дубляжа не будет, максимум многоголосый перевод от того же НТВ, ну и возможно Омикрон озвучит, но у них 2 голоса скорее всего будет
Все остальные переводы появятся не скоро, лицензии не будет 100%
Так что пока только так, может ещё авторские переводы появятся, но пока тоже ничего неизвестноpiratbit.pw



06-04-2014 16:49 Сквозь снег Скачать торрент  

ну и гавнище))) 2 часа вычеркнуты из жизни, такой бредлятины ешще не виделpiratbit.pw



07-04-2014 12:36 Сквозь снег Скачать торрент  

не ведитесь на рейтинг... ерунда полнаяpiratbit.pw



    Дорогой пользователь! Огромная просьба, поблагодарите релизера, оцените раздачу и оставьте свои комментарий, если Вы скачали Сквозь снег через торрент бесплатно! Внесите свою лепту в развитие PiratBit!
    Комментировать посты могут только пользователи прошедшие не сложную регистрацию
    Показать сообщения:    

    Сквозь снег через торрент
    Скачать бесплатно Сквозь снег
    Сквозь снег скачать торрент
    Сквозь снег смотреть онлайн
    Cкачать фильм Сквозь снег бесплатно
    Сквозь снег скачать торрент в хорошем качестве
    Сквозь снег смотреть онлайн бесплатно в хорошем качестве


    Вы не можете начинать темы
    Вы не можете отвечать на сообщения
    Вы не можете редактировать свои сообщения
    Вы не можете удалять свои сообщения
    Вы не можете голосовать в опросах
    Вы не можете прикреплять файлы к сообщениям
    Вы можете скачивать файлы