1 сезон

1 сезон

iTunes

1

КиноПоиск HD

Кинопоиск HD

iTunes

13

1 сезон

RePack

30

Новинка

ВАЖНО

ИГРА 18+

pack

RePack

MK11
pack

Легкие деньги

RePack

jed

RePack

fifa19

RePack

RDR2

RePack

NEED FOR SPEED™ PAYBACK

4 сезон

9 сезон

Бесстыжие 9 сезон

Все сериалы

все сериалы на PB.wtf

RePack

FAR CRY 5
  
Magnet ссылка

Сквозь снег / Snowpiercer (Пон Чжун Хо) [2013 г., фантастика, боевик, драма, BDRip, Авторский одноголосый(А.Дольский)] piratbit.pw

Сквозь снег через торрент piratbit.pw

Размер: 2.06 GB | Добавлен: 7 лет назад | Торрент скачан:226 раз
Скачать  

04-04-2014 15:49 Сквозь снег Скачать торрент  

Сквозь снег / Snowpiercer
Год выпуска: 2013
Страна: Корея Южная, США, Франция, Чехия / SnowPiercer, Moho Films, Opus Pictures
Жанр: фантастика, боевик, драма
Продолжительность: 02:05:53
Перевод: Авторский одноголосый (А.Дольский)

Режиссер: Пон Чжун Хо

В ролях: Крис Эванс, Сон Кан Хо, Тильда Суинтон, Джейми Белл, Октавия Спенсер, Юэн Бремнер, Элисон Пилл, Ко А Сон, Эд Харрис, Джон Хёрт

Описание: Земля. Недалекое будущее. Семнадцать лет назад на планете произошла техногенная катастрофа. Там, где раньше росли леса и цвели сады, теперь лежат снег и лед. Жизнь сохранилась лишь в гигантском поезде, без остановки мчащемся по трансевразийской магистрали. В первых вагонах состава живет правящая элита, во множестве последних — простые люди. Жизнь в хвосте поезда напоминает концлагерь — болезни, нищета, беспредел надсмотрщиков. Но именно здесь из среды униженных и оскорбленных восстает человек, способный восстановить справедливость. Однако у каждой благородной идеи есть своя темная сторона, и любая революция пожирает своих детей

Качество: BDRip (Рип с BD-Remux 1080p)
Формат: AVI
Видео кодек: XviD
Аудио кодек: AC3
Видео: 720x384 (1.88:1), 23.976 fps, XviD MPEG-4 ~1886 kbps avg, 0.28 bit/pixel
Аудио: 48 kHz, AC3 Dolby Digital, 3/2 (L,C,R,l,r) + LFE ch, ~448 kbps


Общее
Полное имя : H:\кино\Snowpiercer 2013.BDRip.avi
Формат : AVI
Формат/Информация : Audio Video Interleave
Профиль формата : OpenDML
Размер файла : 2,06 Гбайт
Продолжительность : 2 ч. 5 м.
Общий поток : 2341 Кбит/сек
Название фильма : Snowpiercer 2013.BDRip.avi
Режиссёр : Rip by coc900
Программа кодирования : VirtualDubMod 1.5.10.3 | www.virtualdub-fr.org || (build 2550/release)

Видео
Идентификатор : 0
Формат : MPEG-4 Visual
Профиль формата : Advanced Simple@L5
Параметр BVOP формата : 2
Параметр QPel формата : Нет
Параметр GMC формата : Без точки перехода
Параметр матрицы формата : Default (H.263)
Режим смешивания : Сжатый битовый поток
Идентификатор кодека : XVID
Идентификатор кодека/Подсказка : XviD
Продолжительность : 2 ч. 5 м.
Битрейт : 1881 Кбит/сек
Ширина : 720 пикселей
Высота : 384 пикселя
Соотношение сторон : 1,85:1
Частота кадров : 23,976 кадра/сек
Цветовое пространство : YUV
Субдискретизация насыщенности : 4:2:0
Битовая глубина : 8 бит
Тип развёртки : Прогрессивная
Метод сжатия : С потерями
Бит/(Пиксели*Кадры) : 0.284
Размер потока : 1,65 Гбайт (80%)
Библиотека кодирования : XviD 1.2.1 (UTC 2008-12-04)

Аудио
Идентификатор : 1
Формат : AC-3
Формат/Информация : Audio Coding 3
Расширение режима : CM (complete main)
Параметр Endianness формата : Big
Идентификатор кодека : 2000
Продолжительность : 2 ч. 5 м.
Вид битрейта : Постоянный
Битрейт : 448 Кбит/сек
Каналы : 6 каналов
Расположение каналов : Front: L C R, Side: L R, LFE
Частота : 48,0 КГц
Битовая глубина : 16 бит
Метод сжатия : С потерями
Размер потока : 403 Мбайт (19%)
Выравнивание : Разделение по промежуткам
Продолжительность промежутка : 42 мс. (1,00 видеокадр)
Время предзагрузки промежутка : 500 мс.

piratbit.pw



Скачать Сквозь снег через торрент https://pic.kartinco.top/images/6/r4djr.jpg Скачать фильм Сквозь снег через торрент бесплантно в хорошем качестве Описание: Земля. Недалекое будущее. Семнадцать лет назад на планете произошла техногенная катастрофа. Там, где раньше росли леса и цвели ... 8.9 10 7
Торрент: Зарегистрирован [2014-04-04 15:49] · скачан: 226 раз
Статус: √ проверено
Размер: 2.06 GB
Как cкачать? Как скачать Сквозь снег через торрент | UTorrent

% Раздел Тема Автор DL S | L
Зарубежные сериалы [ 24.45 GB ] Сквозь снег / Snowpiercer / Сезон: 2 / Серии: 1-10 из 10 [2021 WEBRip 720p] MVO [NewStudio] bober100 Скачать
3 | 0
Зарубежные сериалы [ 81.71 GB ] Сквозь снег / Snowpiercer / Сезон: 1 / Серии: 1-10 из 10 [2020 UHD WEB-DL 2160p ] DUB [Пифагор / Netflix] +MVO [LostFilm] bober100 Скачать
1 | 0
Зарубежные сериалы [ 7.91 GB ] Сквозь снег / Snowpiercer / Сезон: 2 / Серии: 1-10 из 10 [2021 WEB-DLRip] - [Пифагор / Netflix] Twi7ter Скачать
138 | 70
Зарубежные сериалы [ 33.77 GB ] Сквозь снег / Snowpiercer / Сезон: 2 / Серии: 1-10 из 10 [2021 WEB-DL 1080p] killermax2013 Скачать
3 | 0
Зарубежные сериалы [ 7.43 GB ] Сквозь снег / Snowpiercer / Сезон: 2 / Серии 1-10 из 10 [2021 WEB-DLRip-AVC] MVO [LostFilm] GEKADOL Скачать
7 | 0
Зарубежные сериалы [ 8.93 GB ] Сквозь снег / Snowpiercer / Сезон: 2 / Серии: 1-10 из 10 [2021 WEB-DLRip] DUB [Пифагор / Netflix] bober100 Скачать
2 | 0
Фильмы 2013 [DVDrip, WEB-DLRip, HDrip] [ 3.26 GB ] Сквозь снег / Snowpiercer [2013 BDRip-AVC] MVO bober100 Скачать
1 | 0

28-11-2019 20:33  

Отключить всю рекламу на сайте

04-04-2014 16:06 Сквозь снег Скачать торрент  

забирают 2 гига . а я 600кб. обидно
:threaten: :threaten: :threaten: :threaten: :threaten: :threaten: :threaten:piratbit.pw



05-04-2014 18:15 Сквозь снег Скачать торрент  

Кто в курсе - дубляж будет?piratbit.pw



06-04-2014 01:44 Сквозь снег Скачать торрент  

Фильм г полное :hmmmpiratbit.pw



    Дорогой пользователь! Огромная просьба, поблагодарите релизера, оцените раздачу и оставьте свои комментарий, если Вы скачали Сквозь снег через торрент бесплатно! Внесите свою лепту в развитие PiratBit!
    Комментировать посты могут только пользователи прошедшие не сложную регистрацию
    Показать сообщения:    

    Сквозь снег через торрент
    Скачать бесплатно Сквозь снег
    Сквозь снег скачать торрент
    Сквозь снег смотреть онлайн
    Cкачать фильм Сквозь снег бесплатно
    Сквозь снег скачать торрент в хорошем качестве
    Сквозь снег смотреть онлайн бесплатно в хорошем качестве


    Вы не можете начинать темы
    Вы не можете отвечать на сообщения
    Вы не можете редактировать свои сообщения
    Вы не можете удалять свои сообщения
    Вы не можете голосовать в опросах
    Вы не можете прикреплять файлы к сообщениям
    Вы можете скачивать файлы