Ссылка на приватное зеркало нашего сайта всего за 1$. Внимание количество ограничено!!!

2 сезон

iTunes

1 сезон

1

iTunes

iTunes

iTunes

1 сезон

RePack

30

ИГРА 18+

pack

ВАЖНО

!!Акция!!

Alien_RageХит недели

RePack

MK11
pack

Забери бонус

RePack

jed

!!Акция!!

Alien_Rage

RePack

fifa19

RePack

Assassins Creed: Odyssey

RePack

NEED FOR SPEED™ PAYBACK

4 сезон

9 сезон

Бесстыжие 9 сезон

Все сериалы

все сериалы на PB.wtf

RePack

FAR CRY 5
  

Дубровский (Александр Вартанов, Кирилл Михановский) [2014, Россия, драма, DVDRip] piratbit.pw

Дубровский через торрент piratbit.pw

Размер: 2.06 GB | Добавлен: 6 лет 6 мес. назад | Торрент скачан:626 раз
Скачать  

01-04-2014 20:32 Дубровский Скачать торрент  

Дубровский


  • Год выпуска: 2014
  • Страна: Россия
  • Жанр: драма
  • Продолжительность: 02:05:14
  • Перевод: Не требуется

  • Субтитры: Нет
  • Режиссер: Александр Вартанов, Кирилл Михановский
  • В ролях:

    Данила Козловский (Владимир Дубровский), Клавдия Коршунова (Маша), Юрий Цурило, Александр Мезенцев, Игорь Гордин, Дмитрий Поднозов, Елена Дудина (Лара), Евгений Вакунов (Олег, юрист), Артем Кобзев (Козлов), Любовь Сергеева (Егоровна), Никита Тезин (Васька), Александр Никольский (пристав)
    • Описание:
      Владимир Дубровский - успешный столичный юрист и завсегдатай модных клубов, Маша Троекурова - выпускница английского колледжа и нежная дочь... Хозяева собственных судеб, они едва ли похожи на героев Пушкина. Но внезапная ссора их отцов решительно меняет жизнь Владимира и Маши - они погружаются в реальность, где действуют совсем другие законы...

    Мировая премьера:6 марта 2014

    • Качество: DVDRip
    • Формат: AVI
    • Видео кодек: XviD
    • Аудио кодек:AC3
    • Видео: XviD, 720x400 (16:9), 1888 kbps, 25 fps, 0,262 bpp
    • Аудио: AC3 / 5.1 / 48 kHz / 448 kbps / 16 bit


    Код:

    General
    Complete name                            : D:ТорентыDubrovskiy.2014.O.DVDRip.2100MB.avi
    Format                                   : AVI
    Format/Info                              : Audio Video Interleave
    Format profile                           : OpenDML
    File size                                : 2.06 GiB
    Duration                                 : 2h 5mn
    Overall bit rate                         : 2 349 Kbps
    Writing application                      : VirtualDubMod 1.5.10.3 | www.virtualdub-fr.org || (build 2550/release)
    Writing library                          : VirtualDubMod build 2550/release

    Video
    ID                                       : 0
    Format                                   : MPEG-4 Visual
    Format profile                           : Advanced Simple@L5
    Format settings, BVOP                    : 2
    Format settings, QPel                    : No
    Format settings, GMC                     : No warppoints
    Format settings, Matrix                  : Default (MPEG)
    Codec ID                                 : XVID
    Codec ID/Hint                            : XviD
    Duration                                 : 2h 5mn
    Bit rate                                 : 1 889 Kbps
    Width                                    : 720 pixels
    Height                                   : 400 pixels
    Display aspect ratio                     : 16:9
    Frame rate                               : 25.000 fps
    Color space                              : YUV
    Chroma subsampling                       : 4:2:0
    Bit depth                                : 8 bits
    Scan type                                : Progressive
    Compression mode                         : Lossy
    Bits/(Pixel*Frame)                       : 0.262
    Stream size                              : 1.65 GiB (80%)
    Writing library                          : XviD 1.2.1 (UTC 2008-12-04)

    Audio
    ID                                       : 1
    Format                                   : AC-3
    Format/Info                              : Audio Coding 3
    Mode extension                           : CM (complete main)
    Codec ID                                 : 2000
    Duration                                 : 2h 5mn
    Bit rate mode                            : Constant
    Bit rate                                 : 448 Kbps
    Channel(s)                               : 6 channels
    Channel positions                        : Front: L C R, Side: L R, LFE
    Sampling rate                            : 48.0 KHz
    Bit depth                                : 16 bits
    Compression mode                         : Lossy
    Stream size                              : 401 MiB (19%)
    Alignment                                : Split accross interleaves
    Interleave, duration                     : 40 ms (1.00 video frame)
    Interleave, preload duration             : 500 ms

    Скриншоты:

    Трейлеры к фильмам [2014]
    © Оформление by Raven piratbit.pw



  • Скачать Дубровский через торрент http://static.piratbit.cc/fast57/big/2014/0330/20/5120838ecd7257216aca0808c74b5720.jpg Скачать фильм Дубровский через торрент бесплантно в хорошем качестве Описание:Владимир Дубровский - успешный столичный юрист и завсегдатай модных клубов, Маша Троекурова - выпускница английского колледжа и ... 9.2 10 10
    Info! Золотая раздача, скачанное не засчитывается.
    Торрент: Зарегистрирован [2014-04-01 20:32] · скачан: 626 раз
    Статус: √ проверено
    Размер: 2.06 GB
    Как cкачать? Как скачать Дубровский через торрент | qTorrent

    % Раздел Тема Автор DL S | L
    Наши сериалы [ 9.39 GB ] Досье а Дубровского [1999 Остросюжетный DVDRip] Оригинал Бумер Скачать
    1 | 0
    Наши фильмы (Blu-ray, BD-Remux, HDDVD) [ 25.17 GB ] Дубровский [2014 Blu-ray Оригинал] Бумер Скачать
    1 | 0
    Наши фильмы (Blu-ray, BD-Remux, HDDVD) [ 21.59 GB ] Дубровский [2014 BD-Remux Оригинал] Бумер Скачать
    1 | 0
    Наши новые фильмы 2014 [ 2.18 GB ] Дубровский [2014 BDRip-AVC] [] potroks Скачать
    1 | 0
    Наши новые фильмы 2014 [ 2.18 GB ] Дубровский [2014 HDRip-AVC] от R.G. PiratFilms White Smoke Скачать
    1 | 0
    Наши фильмы (HD, WEB-DL 720p, 1080p) [ 11.97 GB ] Дубровский [2014 BDRip 1080p Оригинал] от R.G. PiratFilms Pavlin Скачать
    1 | 0
    Наши новые фильмы 2014 [ 1.37 GB ] Дубровский [2014 BDRip] [] Cталин Скачать
    1 | 0

    28-11-2019 20:33  

    Отключить всю рекламу на сайте

    10-05-2014 13:24 Дубровский Скачать торрент  

    нудное, скучное и беспонтовое кино.piratbit.pw



    18-07-2014 19:11 Дубровский Скачать торрент  

    и снова здрасти! одни и те же рыла!piratbit.pw



      Дорогой пользователь! Огромная просьба, поблагодарите релизера, оцените раздачу и оставьте свои комментарий, если Вы скачали Дубровский через торрент бесплатно! Внесите свою лепту в развитие PiratBit!
      Комментировать посты могут только пользователи прошедшие не сложную регистрацию
      Показать сообщения:    

      Дубровский через торрент
      Скачать бесплатно Дубровский
      Дубровский скачать торрент
      Дубровский смотреть онлайн
      Cкачать фильм Дубровский бесплатно
      Дубровский скачать торрент в хорошем качестве
      Дубровский смотреть онлайн бесплатно в хорошем качестве


      Вы не можете начинать темы
      Вы не можете отвечать на сообщения
      Вы не можете редактировать свои сообщения
      Вы не можете удалять свои сообщения
      Вы не можете голосовать в опросах
      Вы не можете прикреплять файлы к сообщениям
      Вы можете скачивать файлы