1 сезон

3 сезон

iTunes

1

iTunes

DUB Netflix

iTunes

13

1 сезон

RePack

30

Deluxe

pack

Легкие деньги

ВАЖНО

ИГРА 18+

pack

RePack

MK11

RePack

jed

RePack

fifa19

RePack

RDR2

RePack

NEED FOR SPEED™ PAYBACK

4 сезон

9 сезон

Бесстыжие 9 сезон

Все сериалы

все сериалы на PB.wtf

RePack

FAR CRY 5

Anonymous, доброй ночи, мы не успеваем до 1 числа собрать деньги на оплату серверов, помогите нам пожалуйста в это трудное время. В качестве благодарности мы отключим Вам всю рекламу на сайте (укажите свой ник в строку Ваше имя)!

×
  
Magnet ссылка

Банши. Музыка смерти / Banshee (Кари Скогланд) [2006 г., Криминальная драма, триллер, DVDRip] MVO piratbit.pw

Банши. Музыка смерти через торрент piratbit.pw

Размер: 1.36 GB | Добавлен: 7 лет 2 мес. назад | Торрент скачан:39 раз
Скачать  

30-03-2014 20:26 Банши. Музыка смерти Скачать торрент  

Банши. Музыка смерти / BansheeГод выпуска: 2006
Страна: США
Жанр: Криминальная драма, триллер
Продолжительность: 01:54:09
Перевод: Профессиональный многоголосый

Режиссер: Кари Скогланд
Продюссер: Ким Берлин, Калдекот Чубб, Франсуа Гарсия
Сценарий: Керстен Элмс

Премьера в мире: 24 июня 2006

В ролях: Тэрин Мэннинг, Романо Орзари, Майк Ломбарди, Дженелл Уильямс, Кристиан Кэмпбелл, Тони Калабретта, Морган Келли, Бронуэн Мэнтел, Николас Райт, Майк Царь, Маурицио Терраззано, Эндрю Шэйвер, Джанкарло Кальтабиано, Фелиция Шульман, Деррик Дэймон Рив, Андерсон С. Брэдшоу, Кевин Келсалл, Ричард Ноткин, Карло Местрони, Стив Годин, Майкл Челленджер, Маккензи Манро, Ким Берлин, Калдекот Чубб, Франсуа Гарсия, Стефен Хэйс, Филип К. Линн, Мишель Моска, Сьюзэн Шнейр, Мейер Шварцштайн, Керстен Элмс, Дэвид Франко, Нед Бухаласса, Жан-Франсуа Кампо, Одетт Гадури, Жан-Шарль Клаву, Элиз ДеБлуа, Бенжамин Даффилд Описание: Банши (banshee) – разновидность "семейного" призрака, чей зловещий вой по ночам предвещает смерть кому-либо из членов данной семьи. Традиционно банши описывают как худых женщин с белоснежными лицами, длинными волосами и красными от слез глазами. Героиня фильма, профессиональная угонщица машин, крадет раритетный автомобиль. Оказывается, что его владелец – серийный убийца. Последствия не заставляют себя долго ждать… Качество: DVDRip
Формат: AVI
Видео кодек: XviD
Аудио кодек: AC3
Видео: Xvid 704x384, 25.00fps, 1 708 Kbps
Аудио#1: Dolby AC3, 48000Hz, 6ch, 224kbps Русский
Аудио#2: Dolby AC3, 48000Hz, 2ch, 192kbps Английский
Релиз от: MetionInka








General
Complete name : H:Banshi.Muzyka.smerti.2006.XviD.DVDRip.avi
Format : AVI
Format/Info : Audio Video Interleave
File size : 1.36 GiB
Duration : 1h 30mn
Overall bit rate : 2 138 Kbps
Movie name : Banshi.Muzyka.smerti.2006.XviD.DVDRip.Dim-Dim
Director : Dim-Dim Studio
Recorded date : 2009.08.17
Writing application : VirtualDubMod 1.5.10.2 (build 2540/release)
Writing library : VirtualDubMod build 2540/release

Video
ID : 0
Format : MPEG-4 Visual
Format profile : Advanced Simple@L5
Format settings, BVOP : 2
Format settings, QPel : No
Format settings, GMC : No warppoints
Format settings, Matrix : Default (MPEG)
Muxing mode : Packed bitstream
Codec ID : XVID
Codec ID/Hint : XviD
Duration : 1h 30mn
Bit rate : 1 708 Kbps
Width : 704 pixels
Height : 384 pixels
Display aspect ratio : 16:9
Frame rate : 25.000 fps
Color space : YUV
Chroma subsampling : 4:2:0
Bit depth : 8 bits
Scan type : Progressive
Compression mode : Lossy
Bits/(Pixel*Frame) : 0.253
Stream size : 1.08 GiB (80%)
Writing library : XviD 1.2.0.dev47 (UTC 2006-11-01)

Audio #1
ID : 1
Format : AC-3
Format/Info : Audio Coding 3
Mode extension : CM (complete main)
Codec ID : 2000
Duration : 1h 30mn
Bit rate mode : Constant
Bit rate : 224 Kbps
Channel(s) : 6 channels
Channel positions : Front: L C R, Side: L R, LFE
Sampling rate : 48.0 KHz
Bit depth : 16 bits
Compression mode : Lossy
Stream size : 146 MiB (10%)
Alignment : Split accross interleaves
Interleave, duration : 40 ms (1.00 video frame)
Interleave, preload duration : 500 ms

Audio #2
ID : 2
Format : AC-3
Format/Info : Audio Coding 3
Mode extension : CM (complete main)
Codec ID : 2000
Duration : 1h 30mn
Bit rate mode : Constant
Bit rate : 192 Kbps
Channel(s) : 2 channels
Channel positions : Front: L R
Sampling rate : 48.0 KHz
Bit depth : 16 bits
Compression mode : Lossy
Stream size : 125 MiB (9%)
Alignment : Split accross interleaves
Interleave, duration : 40 ms (1.00 video frame)
Interleave, preload duration : 500 ms

piratbit.pw



Скачать Банши. Музыка смерти через торрент https://pic1.kartinco.top/images/61/fdaaz.jpg Скачать фильм Банши. Музыка смерти через торрент бесплантно в хорошем качестве Описание: Банши (banshee) – разновидность "семейного" призрака, чей зловещий вой по ночам предвещает смерть кому-либо из членов данной ... 9.9 10 9
Info! Золотая раздача, скачанное не засчитывается.
Торрент: Зарегистрирован [2014-03-30 20:26] · скачан: 39 раз
Статус: √ проверено
Размер: 1.36 GB
Как cкачать? Как скачать Банши. Музыка смерти через торрент | UTorrent



Последний раз редактировалось: lug30 (2014-03-30 21:05), всего редактировалось 1 раз

28-11-2019 20:33  

Отключить всю рекламу на сайте

30-03-2014 20:56 Банши. Музыка смерти Скачать торрент  

парень на первом скрине похож на Билана piratbit.pw



31-03-2014 03:50 Банши. Музыка смерти Скачать торрент  

lug30 писал(а):

парень на первом скрине похож на Билана

Нулевое сходство.piratbit.pw



31-03-2014 06:52 Банши. Музыка смерти Скачать торрент  

lug30 писал(а):

парень на первом скрине похож на Билана

Если только полом....piratbit.pw



01-04-2014 07:13 Банши. Музыка смерти Скачать торрент  

похож, только постерский пац мужиковатый и брутальный.piratbit.pw



    Дорогой пользователь! Огромная просьба, поблагодарите релизера, оцените раздачу и оставьте свои комментарий, если Вы скачали Банши. Музыка смерти через торрент бесплатно! Внесите свою лепту в развитие PiratBit!
    Комментировать посты могут только пользователи прошедшие не сложную регистрацию
    Показать сообщения:    

    Банши. Музыка смерти через торрент
    Скачать бесплатно Банши. Музыка смерти
    Банши. Музыка смерти скачать торрент
    Банши. Музыка смерти смотреть онлайн
    Cкачать фильм Банши. Музыка смерти бесплатно
    Банши. Музыка смерти скачать торрент в хорошем качестве
    Банши. Музыка смерти смотреть онлайн бесплатно в хорошем качестве


    Вы не можете начинать темы
    Вы не можете отвечать на сообщения
    Вы не можете редактировать свои сообщения
    Вы не можете удалять свои сообщения
    Вы не можете голосовать в опросах
    Вы не можете прикреплять файлы к сообщениям
    Вы можете скачивать файлы