1 сезон

1 сезон

iTunes

1

КиноПоиск HD

Кинопоиск HD

iTunes

13

1 сезон

RePack

30

Ultimate

ВАЖНО

ИГРА 18+

pack

RePack

MK11
pack

Легкие деньги

RePack

jed

RePack

fifa19

RePack

RDR2

RePack

NEED FOR SPEED™ PAYBACK

4 сезон

9 сезон

Бесстыжие 9 сезон

Все сериалы

все сериалы на PB.wtf

RePack

FAR CRY 5
  
Magnet ссылка

Вне времени / Out Of Time (Карл Франклин / Carl Franklin) [2003, Детектив, Драма, Триллер, BDRip] [AVO] (А.Гаврилов) piratbit.pw

Вне времени через торрент piratbit.pw

Размер: 1.85 GB | Добавлен: 7 лет назад | Торрент скачан:53 раза
Скачать  

30-03-2014 19:00 Вне времени Скачать торрент  

Вне времени / Out Of Time

Год выпуска: 2003
Страна: США
Жанр: Детектив, Драма, Триллер
Продолжительность: 01:45:25
Перевод: Авторский (одноголосый, закадровый)[Андрей Гаврилов]
Cубтитры: нет

Режиссер: Карл Франклин / Carl Franklin

В ролях: Дензел Вашингтон (Matthias Lee Whitlock), Ева Мендес (Alex Diaz Whitlock), Санаа Лэтэн (Ann Merai Harrison), Дин Кэйн (Chris Harrison), Джон Биллингсли (Chae), Роберт Бэйкер (Tony Dalton), Алекс Картер (Paul Cabot), Энтони Короне (Deputy Baste), Терри Лафлин (Agent Stark), Нора Данн (Dr. Donovan)

Описание: Представьте себе, что все, что вы знали, и все, во что верили, — оказалось ошибочным. Для Мэтта Ли Уитлока этот кошмар стал реальностью. Мэтт — начальник полиции в маленьком городке Флориды — трудоголик, отлично справляющийся со своей работой. Он снискал уважение коллег и любовь жителей. Когда город шокирован жестоким двойным убийством, Мэтт начинает свое расследование — и тут в его жизни начинается путаница. Когда всплывают детали дела, оказывается, что все улики указывают Мэтта. Он — главный подозреваемый...

Качество: BDRip (исх. BD-Remux /1080p)
Формат: AVI
Видео кодек: XviD
Аудио кодек: AC3
Видео: 720x304 (2.37:1), 23.976 fps, XviD build 50 ~2051 kbps avg, 0.39 bit/pixel
Аудио: 48 kHz, AC3 Dolby Digital, 3/2 (L,C,R,l,r) + LFE ch, ~448.00 kbps avg
General
Complete name : E:INTERNETVne.Vremeni.2003.BDRip.XviD.avi
Format : AVI
Format/Info : Audio Video Interleave
File size : 1.85 GiB
Duration : 1h 45mn
Overall bit rate : 2 509 Kbps
Movie name : Вне времени / Out Of Time (2003) BDRip
Director : olger
Writing application : VirtualDubModRus 1.5.10.2 (build 2542/release)
Writing library : VirtualDubMod build 2542/release

Video
ID : 0
Format : MPEG-4 Visual
Format profile : Advanced Simple@L5
Format settings, BVOP : 1
Format settings, QPel : No
Format settings, GMC : No warppoints
Format settings, Matrix : Default (MPEG)
Codec ID : XVID
Codec ID/Hint : XviD
Duration : 1h 45mn
Bit rate : 2 052 Kbps
Width : 720 pixels
Height : 304 pixels
Display aspect ratio : 2.35:1
Frame rate : 23.976 fps
Color space : YUV
Chroma subsampling : 4:2:0
Bit depth : 8 bits
Scan type : Progressive
Compression mode : Lossy
Bits/(Pixel*Frame) : 0.391
Stream size : 1.51 GiB (82%)
Writing library : XviD 1.2.1 (UTC 2008-12-04)

Audio
ID : 1
Format : AC-3
Format/Info : Audio Coding 3
Mode extension : CM (complete main)
Codec ID : 2000
Duration : 1h 45mn
Bit rate mode : Constant
Bit rate : 448 Kbps
Channel(s) : 6 channels
Channel positions : Front: L C R, Side: L R, LFE
Sampling rate : 48.0 KHz
Bit depth : 16 bits
Compression mode : Lossy
Stream size : 338 MiB (18%)
Alignment : Split accross interleaves
Interleave, duration : 42 ms (1.00 video frame)
Interleave, preload duration : 500 ms
piratbit.pw



Скачать Вне времени через торрент http://i60.fastpic.ru/big/2014/0216/0f/2e68d259ed00f35410eccbfb3f7d080f.jpg Скачать фильм Вне времени через торрент бесплантно в хорошем качестве Описание: Представьте себе, что все, что вы знали, и все, во что верили, — оказалось ошибочным. Для Мэтта Ли Уитлока этот кошмар стал ... 10 10 5
Info! Золотая раздача, скачанное не засчитывается.
Торрент: Зарегистрирован [2014-03-30 19:00] · скачан: 53 раз
Статус: √ проверено
Размер: 1.85 GB
Как cкачать? Как скачать Вне времени через торрент | UTorrent

% Раздел Тема Автор DL S | L
Фильмы [HD 720p, 1080p] (Хороший звук DUB, MVO) [ 10.45 GB ] Вне времени / Out Of Time [2003 BDRip 1080p + Оригинал] -Lexx- Скачать
1 | 0
Фильмы (Blu-ray, BD-Remux, HDDVD) [ 16.74 GB ] Вне времени / Out of Time [2003 BDRemux 1080p] Dub + DVO + AVO + Original eng + Sub rus eng Ворон Скачать
1 | 0
Фильмы [HD 720p, 1080p] (Хороший звук DUB, MVO) [ 6.89 GB ] Вне времени / Out Of Time [2003 BDRip 720p MVO лицензия] Assasinca Скачать
1 | 0
Фильмы 2001-2005 [ 1.46 GB ] Вне времени / Out of Time [2003 BDRip] DUB |лицензия| Mr. Freeman Скачать
1 | 0
Фильмы 2001-2005 [ 737 MB ] Вне времени / Out of Time [2003 HDRip лицензия] VintMosina Скачать
1 | 0

28-11-2019 20:33  

Отключить всю рекламу на сайте

31-03-2014 03:25 Вне времени Скачать торрент  

Классный фильм, сильная интрига!!!piratbit.pw



31-03-2014 06:24 Вне времени Скачать торрент  

dgrebenichenko писал(а):

Классный фильм, сильная интрига!!!

ну так,плохого не держим piratbit.pw



    Дорогой пользователь! Огромная просьба, поблагодарите релизера, оцените раздачу и оставьте свои комментарий, если Вы скачали Вне времени через торрент бесплатно! Внесите свою лепту в развитие PiratBit!
    Комментировать посты могут только пользователи прошедшие не сложную регистрацию
    Показать сообщения:    

    Вне времени через торрент
    Скачать бесплатно Вне времени
    Вне времени скачать торрент
    Вне времени смотреть онлайн
    Cкачать фильм Вне времени бесплатно
    Вне времени скачать торрент в хорошем качестве
    Вне времени смотреть онлайн бесплатно в хорошем качестве


    Вы не можете начинать темы
    Вы не можете отвечать на сообщения
    Вы не можете редактировать свои сообщения
    Вы не можете удалять свои сообщения
    Вы не можете голосовать в опросах
    Вы не можете прикреплять файлы к сообщениям
    Вы можете скачивать файлы