1 сезон

1 сезон

iTunes

1

КиноПоиск HD

Кинопоиск HD

iTunes

13

1 сезон

RePack

30

Новинка

ВАЖНО

ИГРА 18+

pack

RePack

MK11
pack

Легкие деньги

RePack

jed

RePack

fifa19

RePack

RDR2

RePack

NEED FOR SPEED™ PAYBACK

4 сезон

9 сезон

Бесстыжие 9 сезон

Все сериалы

все сериалы на PB.wtf

RePack

FAR CRY 5
  
Magnet ссылка

Добро пожаловать в капкан / Welcome to the Punch (Эрен Криви / Eran Creevy) [2013, Боевик,Криминал, HDRip] [AVO] (А.Гаврилов) piratbit.pw

Добро пожаловать в капкан через торрент piratbit.pw

Размер: 1.46 GB | Добавлен: 7 лет назад | Торрент скачан:333 раза
Скачать  

30-03-2014 07:17 Добро пожаловать в капкан Скачать торрент  



Добро пожаловать в капкан / Welcome to the Punch


Страна: Великобритания, США
Жанр: Боевик,Криминал
Год выпуска: 2013
Продолжительность: 01:39:38
Перевод: Авторский (одноголосый, закадровый) |Андрей Гаврилов|

Cубтитры: нет
Режиссер: Эрен Криви / Eran Creevy
В ролях: Джеймс МакЭвой, Марк Стронг, Андреа Райзборо, Джонни Харрис, Дэниэл Мейс, Дэвид Моррисси, Питер Муллан, Наташа Литтл, Дэниэл Калуя, Рут Шин

Описание: Бывший преступник Джейкоб Стернбуд вынужден вернуться в Лондон из своего убежища, когда его сын вовлечен в ограбление пошедшее не так. У детектива Макса Левински появляется шанс поймать человека, которому всегда удавалось уйти. Соперники снова меряются силами, но они сталкиваются с более глубоким преступным заговором, с которым вынуждены бороться, чтобы выжить.



Качество: HDRip |рип c 1080p|
Формат: AVI
Видео кодек: XviD
Аудио кодек: AC3
Видео: 720x304 (2.37:1), 23.975 fps, XviD MPEG-4 ~1644 kbps avg, 0.31 bit/pixel
Аудио: 48 kHz, AC3 Dolby Digital, 3/2 (L,C,R,l,r) + LFE ch, ~448.00 kbps avg
Общее
Полное имя : F:BD torrentmytorrentsupДобро пожаловать в капкан.2013.HDRip.1.46Gb.avi
Формат : AVI
Формат/Информация : Audio Video Interleave
Размер файла : 1,46 Гбайт
Продолжительность : 1 ч. 39 м.
Общий поток : 2102 Кбит/сек
Название фильма : Добро пожаловать в капкан
Жанр : боевик
Программа кодирования : VirtualDubModRus 1.5.10.2 (build 2542/release)
Библиотека кодирования : VirtualDubMod build 2542/release
Видео
Идентификатор : 0
Формат : MPEG-4 Visual
Профиль формата : Advanced Simple@L5
Параметр BVOP формата : 2
Параметр QPel формата : Нет
Параметр GMC формата : Без точки перехода
Параметр матрицы формата : Выборочная
Режим смешивания : Сжатый битовый поток
Идентификатор кодека : XVID
Идентификатор кодека/Подсказка : XviD
Продолжительность : 1 ч. 39 м.
Битрейт : 1644 Кбит/сек
Ширина : 720 пикселей
Высота : 304 пикселя
Соотношение сторон : 2,35:1
Частота кадров : 23,976 кадра/сек
Цветовое пространство : YUV
Субдискретизация насыщенности : 4:2:0
Битовая глубина : 8 бит
Тип развёртки : Прогрессивная
Метод сжатия : С потерями
Бит/(Пиксели*Кадры) : 0.313
Размер потока : 1,14 Гбайт (78%)
Библиотека кодирования : XviD 65
Аудио
Идентификатор : 1
Формат : AC-3
Формат/Информация : Audio Coding 3
Расширение режима : CM (complete main)
Параметр Endianness формата : Big
Идентификатор кодека : 2000
Продолжительность : 1 ч. 39 м.
Вид битрейта : Постоянный
Битрейт : 448 Кбит/сек
Каналы : 6 каналов
Расположение каналов : Front: L C R, Side: L R, LFE
Частота : 48,0 КГц
Битовая глубина : 16 бит
Метод сжатия : С потерями
Задержка видео : 6 мс.
Размер потока : 319 Мбайт (21%)
Выравнивание : Разделение по промежуткам
Продолжительность промежутка : 42 мс. (1,00 видеокадр)
Время предзагрузки промежутка : 500 мс.
Заголовок : А.Гаврилов
piratbit.pw



Скачать Добро пожаловать в капкан через торрент http://i2.imageban.ru/out/2014/03/29/1c620ad9688fbae934b0974b0c6505f8.jpg Скачать фильм Добро пожаловать в капкан через торрент бесплантно в хорошем качестве Описание: Бывший преступник Джейкоб Стернбуд вынужден вернуться в Лондон из своего убежища, когда его сын вовлечен в ограбление пошедшее не ... 9.1 10 9
Торрент: Зарегистрирован [2014-03-30 07:17] · скачан: 333 раз
Статус: √ проверено
Размер: 1.46 GB
Как cкачать? Как скачать Добро пожаловать в капкан через торрент | UTorrent

% Раздел Тема Автор DL S | L
Фильмы [HD 720p, 1080p] (Хороший звук DUB, MVO) [ 9.84 GB ] Добро пожаловать в капкан / Welcome to the Punch [2013 BDRip 1080p [] Ворон Скачать
1 | 0
# Фильмы 2013 [DVDrip, WEB-DLRip, HDrip] [ 2.07 GB ] Добро пожаловать в капкан / Welcome to the Punch [2013 HDRip ""] coc900 Скачать
1 | 1
Фильмы [HD 720p, 1080p] (Хороший звук DUB, MVO) [ 11.03 GB ] Добро пожаловать в капкан / Welcome to the Punch [2013 BDRip 1080p Дублированное [] Ворон Скачать
1 | 0
Фильмы 2012 [ 2.23 GB ] Добро пожаловать в капкан / Welcome to the Punch [2013 BDRip-AVC] Dub potroks Скачать
1 | 0
Фильмы [HD 720p, 1080p] (Хороший звук DUB, MVO) [ 5.76 GB ] Добро пожаловать в капкан / Welcome to the Punch [2013 BDRip 720p [] Ворон Скачать
1 | 0
Фильмы 2013 [DVDrip, WEB-DLRip, HDrip] [ 2.19 GB ] Добро пожаловать в капкан / Welcome to the Punch [2012 HDRip [ ]+AVO+VO Ворон Скачать
1 | 0
Фильмы 2013 [DVDrip, WEB-DLRip, HDrip] [ 1.36 GB ] Добро пожаловать в капкан / Welcome to the Punch [2013 HDRip] DUB diletant Скачать
2 | 0

28-11-2019 20:33  

Отключить всю рекламу на сайте

30-03-2014 10:10 Добро пожаловать в капкан Скачать торрент  

спасибо хороший фильмpiratbit.pw



    Дорогой пользователь! Огромная просьба, поблагодарите релизера, оцените раздачу и оставьте свои комментарий, если Вы скачали Добро пожаловать в капкан через торрент бесплатно! Внесите свою лепту в развитие PiratBit!
    Комментировать посты могут только пользователи прошедшие не сложную регистрацию
    Показать сообщения:    

    Добро пожаловать в капкан через торрент
    Скачать бесплатно Добро пожаловать в капкан
    Добро пожаловать в капкан скачать торрент
    Добро пожаловать в капкан смотреть онлайн
    Cкачать фильм Добро пожаловать в капкан бесплатно
    Добро пожаловать в капкан скачать торрент в хорошем качестве
    Добро пожаловать в капкан смотреть онлайн бесплатно в хорошем качестве


    Вы не можете начинать темы
    Вы не можете отвечать на сообщения
    Вы не можете редактировать свои сообщения
    Вы не можете удалять свои сообщения
    Вы не можете голосовать в опросах
    Вы не можете прикреплять файлы к сообщениям
    Вы можете скачивать файлы