1 сезон

1 сезон

iTunes

1

КиноПоиск HD

Кинопоиск HD

iTunes

13

1 сезон

RePack

30

Ultimate

ВАЖНО

ИГРА 18+

pack

RePack

MK11
pack

Легкие деньги

RePack

jed

RePack

fifa19

RePack

RDR2

RePack

NEED FOR SPEED™ PAYBACK

4 сезон

9 сезон

Бесстыжие 9 сезон

Все сериалы

все сериалы на PB.wtf

RePack

FAR CRY 5
  
Magnet ссылка

О смерти, о любви / Dellamorte Dellamore (Микеле Соави) [1993 г., ужасы, комедия, HDRip, Авторский] от R.G. PiratFilms piratbit.pw

О смерти, о любви через торрент piratbit.pw

Размер: 1.45 GB | Добавлен: 7 лет назад | Торрент скачан:24 раза
Скачать  

29-03-2014 16:48 О смерти, о любви Скачать торрент  

О смерти о любви / Dellamorte Dellamore

Год выпуска: 1993
Страна: Италия, Франция, Германия
Жанр: ужасы, комедия
Продолжительность: 01:43:20
Перевод: Авторский

Режиссер: Микеле Соави
Продюссер: Хайнц Бибо, Тильде Корси, Джанни Ромоли
Сценарий: Джанни Ромоли, Тициано Склави
Бюджет: $4 000 000
Премьера в мире: 18 марта 1994

IMDB 7.30 (13 609)


В ролях: Руперт Эверетт, Франсуа Хаджи-Лазаро, Анна Фальчи, Микки Нокс, Фабиана Формика, Клайв Ричи, Катя Энтон, Барбара Куписти, Антон Александр, Пьетро Дженуарди

Описание: Франческо Делламорте — смотритель кладбища маленького итальянского захолустного городка. Однако его работа немного отличается от обычной — дело в том, что по какой-то непонятной причине мертвецы на этом кладбище имеют дурную привычку пролежав неделю в гробу восставать из мертвых. И в число обязанностей Франческо входит отправлять их обратно в могилы, что он и делает, используя, наверное, самый классический способ — выстрелом разносит им головы...



Качество: HDRip
Формат: AVI
Видео кодек: XviD
Аудио кодек: AC3
Видео: MPEG4, XviD, 720x304 (2.35:1), 23.976 fps, 1 614 Kbps (0.307 bit/pixel)
Аудио#1: AC-3, 48.0 KHz, 2 ch, 192 Kbps, CBR (Russian-AVO.В.Штейн)
Аудио#2: AC-3, 48.0 KHz, 2 ch, 192 Kbps, CBR (Russian-AVO.С.Сергеев)
Формат : AVI
Формат/Информация : Audio Video Interleave
Размер файла : 1,45 Гбайт
Продолжительность : 1 ч. 43 м.
Общий поток : 2012 Кбит/сек
Название фильма : Dellamorte Delamorte 1993 HDRip ot R.G. PiratFilms
Программа кодирования : VirtualDubModRus 1.5.10.2 (build 2542/release)
Примечание : Rip ot kep

Видео
Идентификатор : 0
Формат : MPEG-4 Visual
Профиль формата : Advanced Simple@L5
Параметр BVOP формата : 1
Параметр QPel формата : Нет
Параметр GMC формата : Без точки перехода
Параметр матрицы формата : Default (MPEG)
Идентификатор кодека : XVID
Идентификатор кодека/Подсказка : XviD
Продолжительность : 1 ч. 43 м.
Битрейт : 1614 Кбит/сек
Ширина : 720 пикселей
Высота : 304 пикселя
Соотношение сторон : 2,35:1
Частота кадров : 23,976 кадра/сек
Цветовое пространство : YUV
Субдискретизация насыщенности : 4:2:0
Битовая глубина : 8 бит
Тип развёртки : Прогрессивная
Метод сжатия : С потерями
Бит/(Пиксели*Кадры) : 0.307
Размер потока : 1,16 Гбайт (80%)
Библиотека кодирования : XviD 1.2.1 (UTC 2008-12-04)

Аудио #1
Идентификатор : 1
Формат : AC-3
Формат/Информация : Audio Coding 3
Расширение режима : CM (complete main)
Параметр Endianness формата : Big
Идентификатор кодека : 2000
Продолжительность : 1 ч. 43 м.
Вид битрейта : Постоянный
Битрейт : 192 Кбит/сек
Каналы : 2 канала
Расположение каналов : Front: L R
Частота : 48,0 КГц
Битовая глубина : 16 бит
Метод сжатия : С потерями
Размер потока : 142 Мбайт (10%)
Выравнивание : Разделение по промежуткам
Продолжительность промежутка : 42 мс. (1,00 видеокадр)
Время предзагрузки промежутка : 500 мс.
Заголовок : Russian.AVO.В.Штейн

Аудио #2
Идентификатор : 2
Формат : AC-3
Формат/Информация : Audio Coding 3
Расширение режима : CM (complete main)
Параметр Endianness формата : Big
Идентификатор кодека : 2000
Продолжительность : 1 ч. 43 м.
Вид битрейта : Постоянный
Битрейт : 192 Кбит/сек
Каналы : 2 канала
Расположение каналов : Front: L R
Частота : 48,0 КГц
Битовая глубина : 16 бит
Метод сжатия : С потерями
Размер потока : 142 Мбайт (10%)
Выравнивание : Разделение по промежуткам
Продолжительность промежутка : 42 мс. (1,00 видеокадр)
Время предзагрузки промежутка : 500 мс.
Заголовок : Russian.AVO.С.Сергеев

Сэмпл / Трейлер piratbit.pw



Скачать О смерти, о любви через торрент http://i3.imageban.ru/out/2014/03/29/84190274b6f1ad2e4ff14f94dc92096d.png Скачать фильм О смерти, о любви через торрент бесплантно в хорошем качестве Описание: Франческо Делламорте — смотритель кладбища маленького итальянского захолустного городка. Однако его работа немного отличается от ... 10 10 9
Info! Золотая раздача, скачанное не засчитывается.
Торрент: Зарегистрирован [2014-03-29 16:48] · скачан: 24 раз
Статус: √ проверено
Размер: 1.45 GB
Как cкачать? Как скачать О смерти, о любви через торрент | UTorrent

28-11-2019 20:33  

Отключить всю рекламу на сайте

    Дорогой пользователь! Огромная просьба, поблагодарите релизера, оцените раздачу и оставьте свои комментарий, если Вы скачали О смерти, о любви через торрент бесплатно! Внесите свою лепту в развитие PiratBit!
    Комментировать посты могут только пользователи прошедшие не сложную регистрацию
    Показать сообщения:    

    О смерти, о любви через торрент
    Скачать бесплатно О смерти, о любви
    О смерти, о любви скачать торрент
    О смерти, о любви смотреть онлайн
    Cкачать фильм О смерти, о любви бесплатно
    О смерти, о любви скачать торрент в хорошем качестве
    О смерти, о любви смотреть онлайн бесплатно в хорошем качестве


    Вы не можете начинать темы
    Вы не можете отвечать на сообщения
    Вы не можете редактировать свои сообщения
    Вы не можете удалять свои сообщения
    Вы не можете голосовать в опросах
    Вы не можете прикреплять файлы к сообщениям
    Вы можете скачивать файлы