Ссылка на приватное зеркало всего за 1$. Внимание количество ограничено!!!

iTunes

iTunes

iTunes

1

iTunes

iTunes

iTunes

iTunes

iTunes

30
pack

$ от Little Big

ВАЖНО

!!Акция!!

Alien_RageХит недели

RePack

Resident Evil 21

ИГРА 18+

pack

RePack

jed

!!Акция!!

Alien_Rage

RePack

fifa19

RePack

Assassins Creed: Odyssey

RePack

NEED FOR SPEED™ PAYBACK

4 сезон

9 сезон

Бесстыжие 9 сезон

Все сериалы

все сериалы на PB.wtf

RePack

FAR CRY 5
  

Вампиры / Vampires (Джон Карпентер / John Carpenter) [1998 г., ужасы, фэнтези, боевик, триллер, HDRip-AVC , Профессиональный (многоголосый закадровый) d2Lab) + Профессиональный (дублированный] (От R.G. PiratFilms) piratbit.pw

Вампиры через торрент piratbit.pw

Размер: 2.18 GB | Добавлен: 6 лет 3 мес. назад | Торрент скачан:90 раз
Скачать  

29-03-2014 13:40 Вампиры Скачать торрент  

Вампиры / VampiresГод выпуска: 1998
Страна: США, Япония
Жанр: ужасы, фэнтези, боевик, триллер
Продолжительность: 01:47:47
Перевод: Дубляж
Субтитры: нет

Режиссер: Джон Карпентер / John Carpenter

В ролях: Джеймс Вудс Дэниэл Болдуин Шерил Ли Томас Йен Гриффит Максимилиан Шелл Тим Гини Марк Бун Джуниор Грегори Сьерра Кэри-Хироюки Тагава Томас Розалес мл.

Описание: По заданию Ватикана Джек Кроу, потомственный охотник на вампиров, и его друг, и напарник Монтойя безжалостно расправляются с вурдалаками, но их главная цель — особо опасный вампир Валек, уроженец Праги, 1300-го года рождения. В охоте на вампира Джеку и Монтойе помогает молодой священник, вооруженный знаниями из древних трактатов о кровососах.
Валек ищет в Штатах древнее распятие, обладающее особой силой. Как известно, вампиры боятся солнечных лучей, убивающих их. Проведение магического обряда с распятием позволит Валеку не бояться солнечного света и сделает его всемогущим. Охотники за вампирами должны поспешить, пока Валек еще уязвим, пока его еще можно убить…

Качество: HDRip-AVC
Формат: MKV
Видео кодек: AVC
Аудио кодек: AC3
Видео: AVC, 1024x426 (2.40:1), 24.000 fps, 1 994 Kbps (0.190 bit/pixel)
Аудио#1: AC-3, 48.0 KHz, 6 ch, 448 Kbps, CBR Профессиональный (дублированный)
Аудио#2: AC-3, 48.0 KHz, 6 ch, 448 Kbps, CBR Профессиональный (многоголосый закадровый) |d2Lab|
Релиз от: Рип by White Smoke

Код:

---[Information] [29.03.2014 8:51:22] x264 [info]: frame I:1370  Avg QP:13.86  size: 65751  PSNR Mean Y:49.19 U:54.02 V:54.42 Avg:50.20 Global:49.92
---[Information] [29.03.2014 8:51:22] x264 [info]: frame P:34190 Avg QP:16.23  size: 20723  PSNR Mean Y:47.18 U:53.51 V:53.77 Avg:48.23 Global:47.74
---[Information] [29.03.2014 8:51:22] x264 [info]: frame B:119650 Avg QP:18.19  size:  6792  PSNR Mean Y:46.30 U:52.98 V:53.29 Avg:47.43 Global:46.81
---[Information] [29.03.2014 8:51:22] x264 [info]: consecutive B-frames:  1.6%  1.5%  5.7% 35.7% 20.3% 28.6%  3.4%  2.4%  0.8%

Общее
Уникальный идентификатор         : 228680739389013631995629549241293898399 (0xAC0A4EF14BE3946CA30F9752DAFC829F)
Полное имя                       : C:GamesVampires 1998 HDRip-AVC.by.White Smoke.R.G. PiratFilms.mkv
Формат                           : Matroska
Размер файла                     : 2,18 Гбайт
Продолжительность                : 1 ч. 47 м.
Общий поток                      : 2891 Кбит/сек
Название фильма                  : Vampires 1998 HDRip-AVC.by.White Smoke.R.G. PiratFilms.mkv
Дата кодирования                 : UTC 2014-03-29 11:36:25
Программа кодирования            : mkvmerge v6.8.0 ('Theme for Great Cities') 64bit built on Mar  2 2014 21:34:26
Библиотека кодирования           : libebml v1.3.0 + libmatroska v1.4.1

Видео
Идентификатор                    : 1
Формат                           : AVC
Формат/Информация                : Advanced Video Codec
Профиль формата                  : High@L4.1
Параметр CABAC формата           : Да
Параметр ReFrames формата        : 10 кадры
Идентификатор кодека             : V_MPEG4/ISO/AVC
Продолжительность                : 1 ч. 47 м.
Битрейт                          : 1994 Кбит/сек
Ширина                           : 1024 пикс.
Высота                           : 426 пикс.
Соотношение сторон               : 2,40:1
Частота кадров                   : 24,000 кадр/сек
Цветовое пространство            : YUV
Подвыборка цветности             : 4:2:0
Битовая глубина                  : 8 бит
Тип развёртки                    : Прогрессивная
Бит/(Пиксели*Кадры)              : 0.190
Размер потока                    : 1,46 Гбайт (67%)
Библиотека кодирования           : x264 core 138 r2358 9e941d1
Настройки программы              : cabac=1 / ref=10 / deblock=1:-3:-3 / analyse=0x3:0x113 / me=umh / subme=9 / psy=1 / psy_rd=1.00:0.00 / mixed_ref=1 / me_range=32 / chroma_me=1 / trellis=2 / 8x8dct=1 / cqm=0 / deadzone=21,11 / fast_pskip=0 / chroma_qp_offset=-2 / threads=6 / lookahead_threads=1 / sliced_threads=0 / nr=0 / decimate=1 / interlaced=0 / bluray_compat=0 / constrained_intra=0 / bframes=8 / b_pyramid=2 / b_adapt=2 / b_bias=8 / direct=1 / weightb=1 / open_gop=0 / weightp=2 / keyint=240 / keyint_min=24 / scenecut=40 / intra_refresh=0 / rc_lookahead=40 / rc=2pass / mbtree=1 / bitrate=1994 / ratetol=1.0 / qcomp=0.70 / qpmin=0 / qpmax=69 / qpstep=4 / cplxblur=20.0 / qblur=0.5 / ip_ratio=1.40 / aq=1:1.00
Язык                             : English

Аудио #1
Идентификатор                    : 2
Формат                           : AC-3
Формат/Информация                : Audio Coding 3
Расширение режима                : CM (complete main)
Идентификатор кодека             : A_AC3
Продолжительность                : 1 ч. 47 м.
Вид битрейта                     : Постоянный
Битрейт                          : 448 Кбит/сек
Канал(ы)                         : 6 канала(ов)
Расположение каналов             : Front: L C R, Side: L R, LFE
Частота                          : 48,0 КГц
Битовая глубина                  : 16 бит
Метод сжатия                     : С потерями
Размер потока                    : 345 Мбайт (15%)
Заголовок                        : DUB
Язык                             : Russian

Аудио #2
Идентификатор                    : 3
Формат                           : AC-3
Формат/Информация                : Audio Coding 3
Расширение режима                : CM (complete main)
Идентификатор кодека             : A_AC3
Продолжительность                : 1 ч. 47 м.
Вид битрейта                     : Постоянный
Битрейт                          : 448 Кбит/сек
Канал(ы)                         : 6 канала(ов)
Расположение каналов             : Front: L C R, Side: L R, LFE
Частота                          : 48,0 КГц
Битовая глубина                  : 16 бит
Метод сжатия                     : С потерями
Размер потока                    : 345 Мбайт (15%)
Заголовок                        : AVO-Завгородний
Язык                             : Russian


За Обложку к релизу спасибо XLASERpiratbit.pw



Скачать Вампиры через торрент http://pic.kartinco.top/images/6/evesq.jpg Скачать фильм Вампиры через торрент бесплантно в хорошем качестве Описание: По заданию Ватикана Джек Кроу, потомственный охотник на вампиров, и его друг, и напарник Монтойя безжалостно расправляются с ... 10 10 15
Info! Золотая раздача, скачанное не засчитывается.
Торрент: Зарегистрирован [2014-03-29 13:40] · скачан: 90 раз
Статус: √ проверено
Размер: 2.18 GB
Как cкачать? Как скачать Вампиры через торрент | qTorrent

% Раздел Тема Автор DL S | L
3D порно [ 1.13 GB ] [3D-Hentai][DeZmall-02] Неко Вампир Элли / [3D-Hentai][DeZmall-02]Neko Vampire Elli [20183D-Big Ass Big Dick Big Tits Creampie Hardcore Anal POVHDRip 720 Оригинальный] DJASFUL Скачать
1 | 1
Фильмы (WEB-DL 720p, 1080p) [ 6.58 GB ] Закат: Вампиры в изгнании / Sundown: The Vampire in Retreat [1989 вампиры WEB-DL 1080p от KORSAR][MVO + 2xAVO] HollySmoke Скачать
1 | 0
Фильмы [HD 720p, 1080p] (Хороший звук DUB, MVO) [ 3.22 GB ] Бал вампиров / Dance of the Vampires [1967 BDRip 720p] 2xMVO + AVO + VO - KORSAR kisa1980 Скачать
1 | 0
Зарубежные сериалы [ 6.86 GB ] Дневники Вампира / The Vampire Diaries / Сезон: 8 / Серии 1-16 из 16 [2016 WEB-DLRip] MVO LostFilm Alex_E Скачать
1 | 0
# Фильмы (мультфильмы) cо спонсором показа (Новинки AVI/MKV) [ 4.86 GB ] Горнило вампира / Crucible of the Vampire [2019 BDRip 720p] MVO ["Синема УС"] bober100 Скачать
1 | 0
T Фильмы (мультфильмы) cо спонсором показа (Новинки AVI/MKV) [ 1.37 GB ] Горнило вампира / Crucible of the Vampire [2019 HDRip] MVO ["Синема УС"] bober100 Скачать
1 | 0
Фильмы (Blu-ray, BD-Remux, HDDVD) [ 18.94 GB ] Я купил мотоцикл-вампир / I Bought a Vampire Motorcycle [1990 Blu-Ray Remux 1080i] DVO AVO Леонид Ильич Скачать
1 | 0

28-11-2019 20:33  

Отключить всю рекламу на сайте

29-03-2014 17:04 Вампиры Скачать торрент  

ООООО Качну сто лет назад смотрел!Прикольненькое кинцо!piratbit.pw



28-10-2015 09:36 Вампиры Скачать торрент  

пожалуйста встаньте на раздачу!!!piratbit.pw



    Дорогой пользователь! Огромная просьба, поблагодарите релизера, оцените раздачу и оставьте свои комментарий, если Вы скачали Вампиры через торрент бесплатно! Внесите свою лепту в развитие PiratBit!
    Комментировать посты могут только пользователи прошедшие не сложную регистрацию
    Показать сообщения:    

    Вампиры через торрент
    Скачать бесплатно Вампиры
    Вампиры скачать торрент
    Вампиры смотреть онлайн
    Cкачать фильм Вампиры бесплатно
    Вампиры скачать торрент в хорошем качестве
    Вампиры смотреть онлайн бесплатно в хорошем качестве


    Вы не можете начинать темы
    Вы не можете отвечать на сообщения
    Вы не можете редактировать свои сообщения
    Вы не можете удалять свои сообщения
    Вы не можете голосовать в опросах
    Вы не можете прикреплять файлы к сообщениям
    Вы можете скачивать файлы