1 сезон

1 сезон

iTunes

1

КиноПоиск HD

Кинопоиск HD

iTunes

13

1 сезон

RePack

30

Ultimate

ВАЖНО

ИГРА 18+

pack

RePack

MK11
pack

Легкие деньги

RePack

jed

RePack

fifa19

RePack

RDR2

RePack

NEED FOR SPEED™ PAYBACK

4 сезон

9 сезон

Бесстыжие 9 сезон

Все сериалы

все сериалы на PB.wtf

RePack

FAR CRY 5
  
Magnet ссылка

Белый лев / White Lion (Майкл Свон / Michael Swan) [2010, ЮАР, драма, семейный, BDRip,Авторский (одноголосый)] piratbit.pw

Белый лев через торрент piratbit.pw

Размер: 1.45 GB | Добавлен: 7 лет назад | Торрент скачан:62 раза
Скачать  

29-03-2014 13:01 Белый лев Скачать торрент  

Белый лев / White Lion
Год выпуска: 2010
Страна: ЮАР
Жанр: драма, семейный
Продолжительность: 01:33:22
Перевод: Авторский (одноголосый)Сербин Юрий
Субтитры: нет
Режиссер: Майкл Свон / Michael Swan
В ролях: Джэми Бартлетт (Richards), Джон Кахи (Old Gisani), Табо Малема (Young Gisani), А.Дж. ван Дер Мерве (Nicalski), Брендан Грили (Brooker), Айртон Лурейро (Camping Son), Дэвид Клэтворти (Camping Dad), Дженнифер Штейн (Camping Mother)
Описание:
Согласно легенде, белые львы - посланники богов, но уникальность Летсатси делает его уязвимым в опасном мире африканского буша. Белая шкура слишком заметна и наш герой изгоняется из прайда плохо подготовленным к самостоятельной охоте. Близкий к голодной смерти, он следует по запаху и отчаянно цепляется за добычу, убитую другим львом. Так он встречает своего первого друга, Нкулу. Нкулу больше знает о том, как выживают взрослые и показывает Летсатси несколько приемов, таких как определение положения крокодила и отвоевывание лучшего куска добычи гиен. Они развлекающиеся подростки. Но однажды, будучи слишком беспечными, они забираются в курятник фермера и Нкулу погибает, попавшись в ловушку. Летсатси учится, как охотится самостоятельно, постепенно прогрессируя от цесарки до антилопы, а известия про его успехи распространяются вокруг. Он вырастает в грозного льва, но перед тем как завладеет своим собственным прайдом, должен встретиться со своим величайшем врагом - трофейным охотником, для которого шкура белого льва бесценна.
kinopoisk.ru: 7.649 (290)
imdb.com: 6.70 (532)
MPAA: PG - Рекомендуется присутствие родителей
Качество: BDRip
Формат: AVI
Видео кодек: XviD
Аудио кодек: AC3
Видео: XviD, 720x416 (16:9), 1836 kbps, 23,976 fps, 0,256 bpp
Аудио: AC3 / 5.1 / 48 kHz / 384 kbps / 16 bit


General
Complete name : E:закачкиBeliy.Lev.2010.AVO.AC3.XviD.BDRip.-HELLYWOOD.avi
Format : AVI
Format/Info : Audio Video Interleave
File size : 1.45 GiB
Duration : 1h 33mn
Overall bit rate : 2 228 Kbps
Movie name : Белый лев (2010) BDRip
Director : by b1nd
Copyright : HELLYWOOD

Video
ID : 0
Format : MPEG-4 Visual
Format profile : Advanced Simple@L5
Format settings, BVOP : 1
Format settings, QPel : No
Format settings, GMC : No warppoints
Format settings, Matrix : Custom
Codec ID : XVID
Codec ID/Hint : XviD
Duration : 1h 33mn
Bit rate : 1 836 Kbps
Width : 720 pixels
Height : 416 pixels
Display aspect ratio : 16:9
Frame rate : 23.976 fps
Color space : YUV
Chroma subsampling : 4:2:0
Bit depth : 8 bits
Scan type : Progressive
Compression mode : Lossy
Bits/(Pixel*Frame) : 0.256
Stream size : 1.20 GiB (82%)
Writing library : XviD 64

Audio
ID : 1
Format : AC-3
Format/Info : Audio Coding 3
Mode extension : CM (complete main)
Codec ID : 2000
Duration : 1h 33mn
Bit rate mode : Constant
Bit rate : 384 Kbps
Channel(s) : 6 channels
Channel positions : Front: L C R, Side: L R, LFE
Sampling rate : 48.0 KHz
Bit depth : 16 bits
Compression mode : Lossy
Stream size : 256 MiB (17%)
Alignment : Aligned on interleaves
Interleave, duration : 64 ms (1.53 video frames)
Interleave, preload duration : 192 ms
Title : Русский [Сербин]
Релиз от:
Автор рипа: b1nd
piratbit.pw



Скачать Белый лев через торрент http://lostpic.net/images/80d58dcc2851942c9be375aa8818dfc0.png Скачать фильм Белый лев через торрент бесплантно в хорошем качестве Описание: Согласно легенде, белые львы - посланники богов, но уникальность Летсатси делает его уязвимым в опасном мире африканского буша. ... 9 10 5
Торрент: Зарегистрирован [2014-03-29 13:02] · скачан: 62 раз
Статус: √ проверено
Размер: 1.45 GB
Как cкачать? Как скачать Белый лев через торрент | UTorrent

% Раздел Тема Автор DL S | L
Фильмы с украинским озвучиванием [ 1.44 GB ] Миа и белый лев / Mia and the White Lion / Mia et le lion blanc [2018 BDRip] [Ukr DUB] killermax2013 Скачать
1 | 0
Фильмы с авторской озвучкой [ 1.71 GB ] Белый лев / White Lion [2010 HDRip] [AVO] + [Sub] + [Orig] killermax2013 Скачать
1 | 0
Фильмы 2010 [ 698 MB ] Белый лев / White Lion [2010 DVDRip] shuller Скачать
1 | 0


Последний раз редактировалось: KEYS (2014-03-29 13:34), всего редактировалось 1 раз

28-11-2019 20:33  

Отключить всю рекламу на сайте


29-03-2014 13:21 Белый лев Скачать торрент  

KEYS
http://pb.wtf/topic/141039/
В программе
http://i2.imageban.ru/out/2014/03/29/a53793afa3d1bffb45f977e8e44c96dd.png
тут убераеш
и ссылок не будетpiratbit.pw



29-03-2014 14:08 Белый лев Скачать торрент  

Raven
спасибо,буду знатьpiratbit.pw



    Дорогой пользователь! Огромная просьба, поблагодарите релизера, оцените раздачу и оставьте свои комментарий, если Вы скачали Белый лев через торрент бесплатно! Внесите свою лепту в развитие PiratBit!
    Комментировать посты могут только пользователи прошедшие не сложную регистрацию
    Показать сообщения:    

    Белый лев через торрент
    Скачать бесплатно Белый лев
    Белый лев скачать торрент
    Белый лев смотреть онлайн
    Cкачать фильм Белый лев бесплатно
    Белый лев скачать торрент в хорошем качестве
    Белый лев смотреть онлайн бесплатно в хорошем качестве


    Вы не можете начинать темы
    Вы не можете отвечать на сообщения
    Вы не можете редактировать свои сообщения
    Вы не можете удалять свои сообщения
    Вы не можете голосовать в опросах
    Вы не можете прикреплять файлы к сообщениям
    Вы можете скачивать файлы