1 сезон

3 сезон

iTunes

1

iTunes

DUB Netflix

iTunes

13

1 сезон

RePack

30

Deluxe

pack

Легкие деньги

ВАЖНО

ИГРА 18+

pack

RePack

MK11

RePack

jed

RePack

fifa19

RePack

RDR2

RePack

NEED FOR SPEED™ PAYBACK

4 сезон

9 сезон

Бесстыжие 9 сезон

Все сериалы

все сериалы на PB.wtf

RePack

FAR CRY 5

Anonymous, доброе утро, мы не успеваем до 1 числа собрать деньги на оплату серверов, помогите нам пожалуйста в это трудное время. В качестве благодарности мы отключим Вам всю рекламу на сайте (укажите свой ник в строку Ваше имя)!

×
  
Magnet ссылка

Дом призраков / Haunted (Виктор Сальва / Victor Salva) [ 2014 , США , ужасы, триллер , HDRip ] VO (datynet) piratbit.pw

Дом призраков через торрент piratbit.pw

Размер: 1.33 GB | Добавлен: 7 лет 2 мес. назад | Торрент скачан:728 раз
Скачать  

27-03-2014 02:45 Дом призраков Скачать торрент  

Дом призраков / Haunted
«Что делать, если призраки реальны ...»

Год выпуска: 2014
Страна: США
Жанр: ужасы, триллер
Продолжительность: 01:42:32
Перевод: Любительский (одноголосый)(datynet)
Субтитры: Нет

Режиссер: Виктор Сальва / Victor Salva
Сценарий: Чарльз Агрон / Charles Agron, Виктор Сальва / Victor Salva
Продюсер: Виктор Сальва / Victor Salva, Чарльз Агрон / Charles Agron, Дон Э. ФонтЛеРой / Don E. FauntLeRoy, Гари Адельман / Gary Adelman, Рон Монард / Ron Monard
Оператор: Дон Э. ФонтЛеРой / Don E. FauntLeRoy
Композитор: Беннетт Сэлвей / Bennett Salvay

Люк Клеинтенк (Nick Di Santo), Энтони Рей Перез (Ryan), Алекс МакКенна (Eve), Зак Уорд (Chris McCulluch), Лэйси Анзелк (Lillith), Этан С. Смит (Sam), Макс Гэйл (Scott), Лесли-Энн Даун (Lilian), Тобин Белл (Seth), Чарльз Агрон (Lucky), Тоня Картер (Asylum Nurse), Брэндон Смит (Asylum Orderly)

Мировая премьера: 4 марта 2014

Описание:Когда Ник Ди Санто узнает, что его отец не только жив, но и может помочь ему понять причину появления странного дара у его сына, он отправляется в путешествие, которое приводит его в заброшенный особняк...

Рейтинг
imdb.com: 4.90 (349)
MPAA: R - Лицам до 17 лет обязательно присутствие взрослого

Качество: HDRip
Формат: AVI
Видео кодек: XviD
Аудио кодек: MP3
Видео: 1660 Кбит/сек, 720*304 (2,35:1), в 23,976 кадра/сек, MPEG-4 Visual (XviD)
Аудио: 192 Кбит/сек, 44,1 КГц, 2 канала, MPEG Audio (MP3 )

Общее
Полное имя : D:ФильмыДом призраков.avi
Формат : AVI
Формат/Информация : Audio Video Interleave
Размер файла : 1,33 Гбайт
Продолжительность : 1 ч. 42 м.
Общий поток : 1861 Кбит/сек
Библиотека кодирования : VirtualDub build 34753/release

Видео
Идентификатор : 0
Формат : MPEG-4 Visual
Профиль формата : Advanced Simple@L5
Параметр BVOP формата : 2
Параметр QPel формата : Нет
Параметр GMC формата : Без точки перехода
Параметр матрицы формата : Default (H.263)
Режим смешивания : Сжатый битовый поток
Идентификатор кодека : XVID
Идентификатор кодека/Подсказка : XviD
Продолжительность : 1 ч. 42 м.
Битрейт : 1660 Кбит/сек
Ширина : 720 пикселей
Высота : 304 пикселя
Соотношение сторон : 2,35:1
Частота кадров : 23,976 кадра/сек
Цветовое пространство : YUV
Субдискретизация насыщенности : 4:2:0
Битовая глубина : 8 бит
Тип развёртки : Прогрессивная
Метод сжатия : С потерями
Бит/(Пиксели*Кадры) : 0.316
Размер потока : 1,19 Гбайт (89%)
Библиотека кодирования : XviD 64

Аудио
Идентификатор : 1
Формат : MPEG Audio
Версия формата : Version 1
Профиль формата : Layer 3
Идентификатор кодека : 55
Идентификатор кодека/Подсказка : MP3
Продолжительность : 1 ч. 42 м.
Вид битрейта : Постоянный
Битрейт : 192 Кбит/сек
Каналы : 2 канала
Частота : 44,1 КГц
Метод сжатия : С потерями
Размер потока : 141 Мбайт (10%)
Выравнивание : Разделение по промежуткам
Продолжительность промежутка : 42 мс. (1,00 видеокадр)
Время предзагрузки промежутка : 500 мс.





piratbit.pw



Скачать Дом призраков через торрент https://pic1.kartinco.top/images/61/a5yae.jpg Скачать фильм Дом призраков через торрент бесплантно в хорошем качестве Описание:Когда Ник Ди Санто узнает, что его отец не только жив, но и может помочь ему понять причину появления странного дара у его сына, ... 9.3 10 20
Торрент: Зарегистрирован [2014-03-27 02:45] · скачан: 728 раз
Статус: T временная
Размер: 1.33 GB
Как cкачать? Как скачать Дом призраков через торрент | UTorrent

% Раздел Тема Автор DL S | L
Зарубежные сериалы [ 6.91 GB ] Призраки дома на холме / The Haunting of Hill House / Сезон: 1 / Серии: 1-10 из 10 [2018 WEB-DLRip] MVO [NewStudio] bober100 Скачать
4 | 1
3D Фильмы [ 9.01 GB ] Призраки дома Винчестеров в 3Д / Haunting of Winchester House 3D [2009 BDRip 1080p] OverUnder / Вертикальная стереопара serega768 Скачать
1 | 0
Зарубежные сериалы [ 7.44 GB ] Призраки дома на холме / The Haunting of Hill House / Сезон: 1 / Серии: 1-10 из 10 [2018 WEB-DLRip] [MVO] killermax2013 Скачать
1 | 0
Зарубежные сериалы [ 6.91 GB ] Призраки дома на холме / The Haunting of Hill House / Сезон: 1 / Серии: 1-10 из 10 [2018 WEB-DLRip] MVO [LostFilm] bober100 Скачать
2 | 0
Зарубежные сериалы [ 7.43 GB ] Призраки дома на холме / The Haunting of Hill House / Сезон: 1 / Серии: 1-10 из 10 [2018 WEB-DL 720p] [MVO] killermax2013 Скачать
1 | 0
Зарубежные сериалы [ 27.73 GB ] Призраки дома на холме / The Haunting of Hill House / Сезон: 1 / Серии: 1-10 из 10 [2018 WEBRip 1080p] MVO [NewStudio] bober100 Скачать
1 | 0
Зарубежные сериалы [ 11.93 GB ] Призраки дома на холме / The Haunting of Hill House / Сезон: 1 / Серии: 1-10 из 10 [2018 WEB-DL 1080p] [MVO] killermax2013 Скачать
1 | 0


Последний раз редактировалось: GEKADOL (2014-04-10 10:34), всего редактировалось 1 раз

28-11-2019 20:33  

Отключить всю рекламу на сайте

28-03-2014 20:56 Дом призраков Скачать торрент  

ремейк очередной или свеженькая трэшатинка?piratbit.pw



08-04-2014 18:31 Дом призраков Скачать торрент  

офигенный фильм, ну для тех кто любит этот жанрpiratbit.pw



13-04-2014 11:39 Дом призраков Скачать торрент  

средний фильмpiratbit.pw



    Дорогой пользователь! Огромная просьба, поблагодарите релизера, оцените раздачу и оставьте свои комментарий, если Вы скачали Дом призраков через торрент бесплатно! Внесите свою лепту в развитие PiratBit!
    Комментировать посты могут только пользователи прошедшие не сложную регистрацию
    Показать сообщения:    

    Дом призраков через торрент
    Скачать бесплатно Дом призраков
    Дом призраков скачать торрент
    Дом призраков смотреть онлайн
    Cкачать фильм Дом призраков бесплатно
    Дом призраков скачать торрент в хорошем качестве
    Дом призраков смотреть онлайн бесплатно в хорошем качестве


    Вы не можете начинать темы
    Вы не можете отвечать на сообщения
    Вы не можете редактировать свои сообщения
    Вы не можете удалять свои сообщения
    Вы не можете голосовать в опросах
    Вы не можете прикреплять файлы к сообщениям
    Вы можете скачивать файлы