1 сезон

1 сезон

iTunes

1

iTunes

Кинопоиск HD

iTunes

13

1 сезон

RePack

30

Deluxe

ВАЖНО

ИГРА 18+

pack

RePack

MK11
pack

Легкие деньги

RePack

jed

RePack

fifa19

RePack

RDR2

RePack

NEED FOR SPEED™ PAYBACK

4 сезон

9 сезон

Бесстыжие 9 сезон

Все сериалы

все сериалы на PB.wtf

RePack

FAR CRY 5
  
Magnet ссылка

Человек в сером / The Gray Man (Скотт Л. Флинн) [2007 г., Триллер, криминал, HDRip-AVC, DVO, SUB] от R.G. PiratFilms piratbit.pw

Человек в сером через торрент piratbit.pw

Размер: 1.46 GB | Добавлен: 7 лет 1 мес. назад | Торрент скачан:60 раз
Скачать  

26-03-2014 17:14 Человек в сером Скачать торрент  

Человек в сером / The Gray Man
Год выпуска: 2007
Страна: США
Производство: RavenWolf Films
Жанр: Триллер, криминал
Продолжительность: 01:36:44
Перевод: Любительский двухголосый |Green Tea|
Субтитры: Russian, English

Режиссер: Скотт Л. Флинн
Продюссер: Аарон Осборн, Эрин Кохрэн, Бретт Крэнфорд
Сценарий: Lee Fontanella, Коллин Кохрэн
Премьера в мире: 31 августа 2007

IMDB 6.10 (1012)


В ролях: Патрик Бошо, Джек Конли, Джон Эйлуорд, Джиллиан Арменанте, Сайлас Уэйр Митчелл, Вито Руджинис, Молли Миллиган, Лекси Эйнсуорт, Шон Сентер, Бен Холл

Описание: Детектив пытается выйти на след Альберта Фиша, серийного убийцы, который похищает, глумится, убивает и иногда ест детей, не оставляя следов. Удастся ли упорному сыщику, объездившему несколько штатов, поймать убийцу? Альберт Фиш — один из раннее известных серийных убийц 20 века в Америке.



Качество: HDRip-AVC
Формат: MKV
Видео кодек: AVC
Аудио кодек: AC3
Видео: AVC, 1024x552 (1.855), 23.976 fps, 1 709 Kbps (0.126 bit/pixel)
Аудио1: AC-3, 48.0 KHz, 6 ch, 448 Kbps, CBR (Russian-Green Tea)
x264 [info]: frame I:901 Avg QP:16.43 size: 87820 PSNR Mean Y:46.83 U:52.34 V:52.66 Avg:47.91 Global:47.18
x264 [info]: frame P:27914 Avg QP:18.80 size: 23408 PSNR Mean Y:45.11 U:52.22 V:52.16 Avg:46.28 Global:45.32
x264 [info]: frame B:110433 Avg QP:22.04 size: 4580 PSNR Mean Y:43.86 U:51.82 V:51.87 Avg:45.16 Global:43.98
x264 [info]: consecutive B-frames: 1.2% 1.5% 6.1% 17.4% 11.3% 55.7% 3.1% 0.5% 1.0% 0.2% 0.3% 0.4% 1.3%
x264 [info]: ref P L0: 44.9% 11.6% 18.0% 6.9% 5.7% 4.1% 3.8% 2.4% 2.4% 0.3% 0.0%
x264 [info]: ref B L0: 73.4% 11.7% 6.0% 3.1% 2.4% 1.9% 1.1% 0.4%
x264 [info]: ref B L1: 91.4% 8.6%
Формат : Matroska
Версия формата : Version 4 / Version 2
Размер файла : 1,46 Гбайт
Продолжительность : 1 ч. 36 м.
Общий поток : 2156 Кбит/сек
Название фильма : The Gray Man (2007) HDRip-AVC от R.G. PiratFilms
Дата кодирования : UTC 2014-03-26 10:08:01
Программа кодирования : mkvmerge v6.8.0 ('Theme for Great Cities') 32bit built on Mar 2 2014 21:27:07
Библиотека кодирования : libebml v1.3.0 + libmatroska v1.4.1

Видео
Идентификатор : 1
Формат : AVC
Формат/Информация : Advanced Video Codec
Профиль формата : High@L4.1
Параметр CABAC формата : Да
Параметр ReFrames формата : 9 кадров
Идентификатор кодека : V_MPEG4/ISO/AVC
Продолжительность : 1 ч. 36 м.
Битрейт : 1709 Кбит/сек
Ширина : 1024 пикселя
Высота : 552 пикселя
Соотношение сторон : 1,85:1
Режим частоты кадров : Постоянный
Частота кадров : 23,976 кадра/сек
Цветовое пространство : YUV
Субдискретизация насыщенности : 4:2:0
Битовая глубина : 8 бит
Тип развёртки : Прогрессивная
Бит/(Пиксели*Кадры) : 0.126
Размер потока : 1,13 Гбайт (77%)
Заголовок : Rip ot kep
Библиотека кодирования : x264 core 138 r2358 9e941d1
Настройки программы : cabac=1 / ref=9 / deblock=1:-3:-3 / analyse=0x3:0x133 / me=umh /
subme=9 / psy=1 / psy_rd=1.00:0.00 / mixed_ref=1 / me_range=32 / chroma_me=1 / trellis=2 /
8x8dct=1 / cqm=0 / deadzone=21,11 / fast_pskip=0 / chroma_qp_offset=-2 / threads=2 /
lookahead_threads=1 / sliced_threads=0 / nr=0 / decimate=1 / interlaced=0 / bluray_compat=0 /
constrained_intra=0 / bframes=12 / b_pyramid=2 / b_adapt=2 / b_bias=0 / direct=3 / weightb=1 /
open_gop=0 / weightp=2 / keyint=240 / keyint_min=23 / scenecut=40 / intra_refresh=0 /
rc_lookahead=60 / rc=2pass / mbtree=1 / bitrate=1709 / ratetol=1.0 / qcomp=0.60 / qpmin=10 /
qpmax=51 / qpstep=4 / cplxblur=20.0 / qblur=0.5 / ip_ratio=1.40 / aq=1:1.00
Язык : English
Default : Да
Forced : Нет

Аудио
Идентификатор : 2
Формат : AC-3
Формат/Информация : Audio Coding 3
Расширение режима : CM (complete main)
Параметр Endianness формата : Big
Идентификатор кодека : A_AC3
Продолжительность : 1 ч. 36 м.
Вид битрейта : Постоянный
Битрейт : 448 Кбит/сек
Каналы : 6 каналов
Расположение каналов : Front: L C R, Side: L R, LFE
Частота : 48,0 КГц
Битовая глубина : 16 бит
Метод сжатия : С потерями
Задержка видео : 33 мс.
Размер потока : 310 Мбайт (21%)
Заголовок : DVO
Язык : Russian
Default : Да
Forced : Нет

Текст #1
Идентификатор : 3
Формат : UTF-8
Идентификатор кодека : S_TEXT/UTF8
Идентификатор кодека/Информация : UTF-8 Plain Text
Заголовок : mks
Язык : Russian
Default : Нет
Forced : Нет

Текст #2
Идентификатор : 4
Формат : UTF-8
Идентификатор кодека : S_TEXT/UTF8
Идентификатор кодека/Информация : UTF-8 Plain Text
Заголовок : mks
Язык : English
Default : Нет
Forced : Нет

Сэмпл / Трейлер piratbit.pw



Скачать Человек в сером через торрент http://i3.imageban.ru/out/2014/03/26/91d166e3cbb6b7a16418a9fc5d30232d.png Скачать фильм Человек в сером через торрент бесплантно в хорошем качестве Описание: Детектив пытается выйти на след Альберта Фиша, серийного убийцы, который похищает, глумится, убивает и иногда ест детей, не ... 8.8 10 4
× Info от релизера! Человек в сером / The Gray Man
Info! Золотая раздача, скачанное не засчитывается.
Торрент: Зарегистрирован [2014-03-27 03:20] · скачан: 60 раз
Статус: √ проверено
Размер: 1.46 GB
Как cкачать? Как скачать Человек в сером через торрент | UTorrent

28-11-2019 20:33  

Отключить всю рекламу на сайте

    Дорогой пользователь! Огромная просьба, поблагодарите релизера, оцените раздачу и оставьте свои комментарий, если Вы скачали Человек в сером через торрент бесплатно! Внесите свою лепту в развитие PiratBit!
    Комментировать посты могут только пользователи прошедшие не сложную регистрацию
    Показать сообщения:    

    Человек в сером через торрент
    Скачать бесплатно Человек в сером
    Человек в сером скачать торрент
    Человек в сером смотреть онлайн
    Cкачать фильм Человек в сером бесплатно
    Человек в сером скачать торрент в хорошем качестве
    Человек в сером смотреть онлайн бесплатно в хорошем качестве


    Вы не можете начинать темы
    Вы не можете отвечать на сообщения
    Вы не можете редактировать свои сообщения
    Вы не можете удалять свои сообщения
    Вы не можете голосовать в опросах
    Вы не можете прикреплять файлы к сообщениям
    Вы можете скачивать файлы