Ссылка на приватное зеркало нашего сайта всего за 1$. Внимание количество ограничено!!!

2 сезон

iTunes

1 сезон

1

iTunes

iTunes

iTunes

1 сезон

RePack

30

ИГРА 18+

pack

ВАЖНО

!!Акция!!

Alien_RageХит недели

RePack

MK11
pack

Забери бонус

RePack

jed

!!Акция!!

Alien_Rage

RePack

fifa19

RePack

Assassins Creed: Odyssey

RePack

NEED FOR SPEED™ PAYBACK

4 сезон

9 сезон

Бесстыжие 9 сезон

Все сериалы

все сериалы на PB.wtf

RePack

FAR CRY 5
  

Дорога в чат (Руслан Гаврилов) [2014, Россия, драма, мелодрама, DVDRip] piratbit.pw

Дорога в чат через торрент piratbit.pw

Размер: 689 MB | Добавлен: 6 лет 7 мес. назад | Торрент скачан:603 раза
Скачать  

23-03-2014 17:53 Дорога в чат Скачать торрент  

Дорога в чат

«Две истории. Двойная жизнь. И долгая дорога в ... чат»

  • Год выпуска: 2014
  • Страна: Россия
  • Жанр: драма, мелодрама
  • Продолжительность: 00:55:09
  • Перевод: Не требуется

  • Субтитры: Нет!
  • Режиссер: Руслан Гаврилов
  • В ролях:

    Ирина Видрицкая (Алина / Варя), Сергей Марков (Влад), Михаил Мухин (Михаил), Евгений Чауш (Андрей), Руслан Гаврилов (Саша)
    • Описание:
      История повествует о двух параллельных жизнях, в которых главная героиня вынуждена, по тем или иным причинам вести двойную жизнь. Днём, она тихая и незаметная, а ночью становится участницей эротического видеочата.


    • Качество: DVDRip
    • Формат: AVI
    • Видео кодек: XviD
    • Аудио кодек:MP3
    • Видео: AVC, 720x300 (2.40:1), 1413 kbps, 23,976 fps, 0,273 bpp
    • Аудио: MP3 / 2.0 / 44 kHz / 320 kbps /


    Код:

    General
    Complete name                            : D:Торентыdoroga_v_chat.DVDRip.avi
    Format                                   : AVI
    Format/Info                              : Audio Video Interleave
    File size                                : 689 MiB
    Duration                                 : 55mn 9s
    Overall bit rate                         : 1 746 Kbps
    Writing application                      : Lavf51.12.1

    Video
    ID                                       : 0
    Format                                   : AVC
    Format/Info                              : Advanced Video Codec
    Format profile                           : Baseline@L3.0
    Format settings, CABAC                   : No
    Format settings, ReFrames                : 1 frame
    Format settings, GOP                     : M=1, N=12
    Codec ID                                 : H264
    Duration                                 : 55mn 9s
    Bit rate                                 : 1 413 Kbps
    Width                                    : 720 pixels
    Height                                   : 300 pixels
    Display aspect ratio                     : 2.40:1
    Frame rate mode                          : Variable
    Frame rate                               : 23.976 fps
    Color space                              : YUV
    Chroma subsampling                       : 4:2:0
    Bit depth                                : 8 bits
    Scan type                                : Progressive
    Bits/(Pixel*Frame)                       : 0.273
    Stream size                              : 558 MiB (81%)

    Audio
    ID                                       : 1
    Format                                   : MPEG Audio
    Format version                           : Version 1
    Format profile                           : Layer 3
    Mode                                     : Joint stereo
    Mode extension                           : MS Stereo
    Codec ID                                 : 55
    Codec ID/Hint                            : MP3
    Duration                                 : 55mn 9s
    Bit rate mode                            : Constant
    Bit rate                                 : 320 Kbps
    Channel(s)                               : 2 channels
    Sampling rate                            : 44.1 KHz
    Compression mode                         : Lossy
    Stream size                              : 126 MiB (18%)
    Alignment                                : Aligned on interleaves
    Interleave, duration                     : 26 ms (0.63 video frame)
    Writing library                          : LAME3.97

    Скриншоты:

    Трейлеры к фильмам [2014]
    © Оформление by Raven piratbit.pw



  • Скачать Дорога в чат через торрент http://i57.fastpic.ru/big/2014/0323/a6/0aa9920d312cccc4c4746fa8420e15a6.jpg Скачать фильм Дорога в чат через торрент бесплантно в хорошем качестве Описание:История повествует о двух параллельных жизнях, в которых главная героиня вынуждена, по тем или иным причинам вести двойную жизнь. ... 7.8 10 13
    Торрент: Зарегистрирован [2014-03-23 17:53] · скачан: 603 раз
    Статус: √ проверено
    Размер: 689 MB
    Как cкачать? Как скачать Дорога в чат через торрент | qTorrent



    Последний раз редактировалось: Ворон (2014-04-10 14:55), всего редактировалось 1 раз

    28-11-2019 20:33  

    Отключить всю рекламу на сайте

    24-03-2014 13:14 Дорога в чат Скачать торрент  

    и как фильм?piratbit.pw



      Дорогой пользователь! Огромная просьба, поблагодарите релизера, оцените раздачу и оставьте свои комментарий, если Вы скачали Дорога в чат через торрент бесплатно! Внесите свою лепту в развитие PiratBit!
      Комментировать посты могут только пользователи прошедшие не сложную регистрацию
      Показать сообщения:    

      Дорога в чат через торрент
      Скачать бесплатно Дорога в чат
      Дорога в чат скачать торрент
      Дорога в чат смотреть онлайн
      Cкачать фильм Дорога в чат бесплатно
      Дорога в чат скачать торрент в хорошем качестве
      Дорога в чат смотреть онлайн бесплатно в хорошем качестве


      Вы не можете начинать темы
      Вы не можете отвечать на сообщения
      Вы не можете редактировать свои сообщения
      Вы не можете удалять свои сообщения
      Вы не можете голосовать в опросах
      Вы не можете прикреплять файлы к сообщениям
      Вы можете скачивать файлы