Ссылка на приватное зеркало нашего сайта всего за 1$. Внимание количество ограничено!!!

2 сезон

iTunes

1 сезон

1

iTunes

iTunes

iTunes

1 сезон

RePack

30

ИГРА 18+

pack

ВАЖНО

!!Акция!!

Alien_RageХит недели

RePack

MK11
pack

Забери бонус

RePack

jed

!!Акция!!

Alien_Rage

RePack

fifa19

RePack

Assassins Creed: Odyssey

RePack

NEED FOR SPEED™ PAYBACK

4 сезон

9 сезон

Бесстыжие 9 сезон

Все сериалы

все сериалы на PB.wtf

RePack

FAR CRY 5
  

Кружева Вера (Иван Мережко) [2014 г., Мелодрама, SATRip] piratbit.pw

Кружева Вера через торрент piratbit.pw

Размер: 1.3 GB | Добавлен: 6 лет 6 мес. назад | Торрент скачан:409 раз
Скачать  

22-03-2014 23:54 Кружева Вера Скачать торрент  

Кружева ВераГод выпуска: 2014
Страна: Россия
Жанр: Мелодрама,
Продолжительность: 01:37:14

Режиссер: Иван Мережко

В ролях: Вера Баханкова, Иван Жидков, Валерия Арланова, Андрей Карако, Инна Коляда, Алеся Пуховая, Елена Дубровская, Анатолий Голуб, Эрик Дик, Наталья Онищенко, Николай Колосов, Светлана Никифорова, Ольга Абрикосова,

Описание: Вера работает швеей на заштатной фабрике города Егорьевска, но мечтает о карьере модного модельера. У неё есть талант и коллекция авторских эскизов, которые никому не интересны в родном Егорьевске. Выход один – ехать в столицу! Уверенная в своей исключительности, Вера заявляется в популярный московский Дом моды Ирины Штайф. Но там девушке из периферии готовы предложить только должность уборщицы. Вера разочарована и всё же соглашается даже на это. Позже поломойка выведет на чистую воду владелицу Дома моды, найдёт верную подругу и всё-таки покорит Москву. Но самое главное – Вера встретит в Москве настоящую любовь...

Качество: SATRip
Формат: AVI
Видео кодек: DivX
Аудио кодек: MP3
Видео: MPEG4, DivX 5, 720x384 (1.875), 25.000 fps, 1 764 Kbps (0.255 bit/pixel)
Аудио: MP3 , 48.0 KHz, 2 ch, 128 Kbps, CBR

Код:

Формат                           : AVI
Формат/Информация                : Audio Video Interleave
Размер файла                     : 1,30 Гбайт
Продолжительность                : 1 ч. 37 м.
Общий поток                      : 1901 Кбит/сек
Программа кодирования            : VirtualDubMod 1.5.10.2 (build 2540/release)
Библиотека кодирования           : VirtualDub build 29808/release

Видео
Идентификатор                    : 0
Формат                           : MPEG-4 Visual
Параметр BVOP формата            : Нет
Параметр QPel формата            : Нет
Параметр GMC формата             : Без точки перехода
Параметр матрицы формата         : Default (H.263)
Идентификатор кодека             : DX50
Идентификатор кодека/Подсказка   : DivX 5
Продолжительность                : 1 ч. 37 м.
Битрейт                          : 1764 Кбит/сек
Ширина                           : 720 пикс.
Высота                           : 384 пикс.
Соотношение сторон               : 1,875
Частота кадров                   : 25,000 кадр/сек
Цветовое пространство            : YUV
Подвыборка цветности             : 4:2:0
Битовая глубина                  : 8 бит
Тип развёртки                    : Прогрессивная
Метод сжатия                     : С потерями
Бит/(Пиксели*Кадры)              : 0.255
Размер потока                    : 1,20 Гбайт (93%)
Библиотека кодирования           : DivX 6.8.5 (UTC 2009-08-20)

Аудио
Идентификатор                    : 1
Формат                           : MPEG Audio
Версия формата                   : Version 1
Профиль формата                  : Layer 3
Режим                            : Joint stereo
Расширение режима                : MS Stereo
Идентификатор кодека             : 55
Идентификатор кодека/Подсказка   : MP3
Продолжительность                : 1 ч. 37 м.
Вид битрейта                     : Постоянный
Битрейт                          : 128 Кбит/сек
Канал(ы)                         : 2 канала(ов)
Частота                          : 48,0 КГц
Метод сжатия                     : С потерями
Размер потока                    : 89,4 Мбайт (7%)
Выравнивание                     : Соединение по промежуткам
Продолжительность промежутка     : 40  мс. (1,00 видеокадр)
Время предзагрузки промежутка    : 504 ms
Библиотека кодирования           : LAME3.90.3


piratbit.pw



Скачать Кружева Вера через торрент http://pic.kartinco.top/images/6/tzlb3.jpg Скачать фильм Кружева Вера через торрент бесплантно в хорошем качестве Описание: Вера работает швеей на заштатной фабрике города Егорьевска, но мечтает о карьере модного модельера. У неё есть талант и коллекция ... 9.5 10 13
Info! Золотая раздача, скачанное не засчитывается.
Торрент: Зарегистрирован [2014-03-22 23:54] · скачан: 409 раз
Статус: √ проверено
Размер: 1.3 GB
Как cкачать? Как скачать Кружева Вера через торрент | qTorrent

28-11-2019 20:33  

Отключить всю рекламу на сайте

    Дорогой пользователь! Огромная просьба, поблагодарите релизера, оцените раздачу и оставьте свои комментарий, если Вы скачали Кружева Вера через торрент бесплатно! Внесите свою лепту в развитие PiratBit!
    Комментировать посты могут только пользователи прошедшие не сложную регистрацию
    Показать сообщения:    

    Кружева Вера через торрент
    Скачать бесплатно Кружева Вера
    Кружева Вера скачать торрент
    Кружева Вера смотреть онлайн
    Cкачать фильм Кружева Вера бесплатно
    Кружева Вера скачать торрент в хорошем качестве
    Кружева Вера смотреть онлайн бесплатно в хорошем качестве


    Вы не можете начинать темы
    Вы не можете отвечать на сообщения
    Вы не можете редактировать свои сообщения
    Вы не можете удалять свои сообщения
    Вы не можете голосовать в опросах
    Вы не можете прикреплять файлы к сообщениям
    Вы можете скачивать файлы