1 сезон

1 сезон

iTunes

1

КиноПоиск HD

Кинопоиск HD

iTunes

13

1 сезон

RePack

30

Новинка

ВАЖНО

ИГРА 18+

pack

RePack

MK11
pack

Легкие деньги

RePack

jed

RePack

fifa19

RePack

RDR2

RePack

NEED FOR SPEED™ PAYBACK

4 сезон

9 сезон

Бесстыжие 9 сезон

Все сериалы

все сериалы на PB.wtf

RePack

FAR CRY 5
  
Magnet ссылка

Сквозь снег / Snowpiercer (Пон Чжун Хо) [2013, фантастика, BDRip-AVC] [AVO] (Д.Есарев) + [Sub] (Rus, Eng) piratbit.pw

Сквозь снег через торрент piratbit.pw

Размер: 1.44 GB | Добавлен: 7 лет назад | Торрент скачан:187 раз
Скачать  

21-03-2014 10:56 Сквозь снег Скачать торрент  

Сквозь снег / Snowpiercer
Год выхода: 2013
Жанр: фантастика
Страна: Корея Южная, США, Франция
Продолжительность: 02:05:54
Перевод: Авторский (одноголосый) ][Д.Есарев]
Субтитры: [русские, английские] Нотабеноид
Тип субтитров: встроенные (отключаемые)

Режиссер: Пон Чжун Хо

В ролях: Крис Эванс, Элисон Пилл, Джейми Белл, Тильда Суинтон, Джон Хёрт, Эд Харрис, Октавия Спенсер, Юэн Бремнер, Люк Паскуалино, Сон Кан Хо и другие.

Описание: Земля. Недалекое будущее. Семнадцать лет назад на планете произошла техногенная катастрофа. Там, где раньше росли леса и цвели сады, теперь лежат снег и лед. Жизнь сохранилась лишь в гигантском поезде, без остановки мчащемся по трансевразийской магистрали. В первых вагонах состава живет правящая элита, во множестве последних простые люди. Жизнь в хвосте поезда напоминает концлагерь болезни, нищета, беспредел надсмотрщиков. Но именно здесь из среды униженных и оскорбленных восстает человек, способный восстановить справедливость. Однако у каждой благородной идеи есть своя темная сторона, и любая революция пожирает своих детей.



Качество: BDRip-AVC
Формат: MKV
Видео кодек: AVC
Аудио кодек: MP3
Видео: V_MPEG4/ISO/AVC, 1051 kbps, 720x388, 23.976 fps
Аудио #1: 48 kHz, AC3 Dolby Digital, 3/2 (L,C,R,l,r) + LFE ch, ~448.00 kbps avg[Д.Есарев]
Аудио #2: MP3 , 48.0 KHz, 256 kbps, 2 Ch [ENG]
Навигация по главам: Есть


Цитата:

Перевод Дмитрия Есарева доступен благодаря пользователям "Переулка Переводмана": Skazhutin, Прохожий, Mr. X, Roy 33, Loki1982, ana2363, Clu-Utility, DrFent.
Работа со звуком - Переводман

General
Unique ID : 226905918157266922210094076677435524345 (0xAAB47D7FF5F337A09759F0FF8A7984F9)
Complete name : E:INTERNETSnowpiercer.2013.BDRip-AVC.[VO](D.Esarev) + 2x[Sub] (Rus, Eng) + Orig Eng.mkv
Format : Matroska
File size : 1.44 GiB
Duration : 2h 5mn
Overall bit rate : 1 633 Kbps
Encoded date : UTC 2014-03-29 13:15:11
Writing application : mkvmerge v6.1.0 ('Old Devil') built on Mar 4 2013 09:10:42
Writing library : libebml v1.3.0 + libmatroska v1.4.0

Video
ID : 1
Format : AVC
Format/Info : Advanced Video Codec
Format profile : High@L3.1
Format settings, CABAC : Yes
Format settings, ReFrames : 5 frames
Codec ID : V_MPEG4/ISO/AVC
Duration : 2h 5mn
Bit rate : 896 Kbps
Width : 720 pixels
Height : 388 pixels
Display aspect ratio : 1.856
Frame rate : 23.976 fps
Color space : YUV
Chroma subsampling : 4:2:0
Bit depth : 8 bits
Scan type : Progressive
Bits/(Pixel*Frame) : 0.134
Stream size : 807 MiB (55%)
Writing library : x264 core 142 r2409 d6b4e63
Encoding settings : cabac=1 / ref=5 / deblock=1:0:0 / analyse=0x3:0x113 / me=umh / subme=8 / psy=1 / psy_rd=1.00:0.00 / mixed_ref=1 / me_range=16 / chroma_me=1 / trellis=1 / 8x8dct=1 / cqm=0 / deadzone=21,11 / fast_pskip=1 / chroma_qp_offset=-2 / threads=18 / lookahead_threads=3 / sliced_threads=0 / nr=0 / decimate=1 / interlaced=0 / bluray_compat=0 / constrained_intra=0 / bframes=3 / b_pyramid=2 / b_adapt=2 / b_bias=0 / direct=3 / weightb=1 / open_gop=0 / weightp=2 / keyint=250 / keyint_min=23 / scenecut=40 / intra_refresh=0 / rc_lookahead=50 / rc=crf / mbtree=1 / crf=19.0 / qcomp=0.60 / qpmin=0 / qpmax=69 / qpstep=4 / ip_ratio=1.40 / aq=1:1.00
Language : English
Matrix coefficients : BT.709-5, BT.1361, IEC 61966-2-4 709, SMPTE RP177

Audio #1
ID : 2
Format : AC-3
Format/Info : Audio Coding 3
Mode extension : CM (complete main)
Codec ID : A_AC3
Duration : 2h 5mn
Bit rate mode : Constant
Bit rate : 448 Kbps
Channel(s) : 6 channels
Channel positions : Front: L C R, Side: L R, LFE
Sampling rate : 48.0 KHz
Bit depth : 16 bits
Compression mode : Lossy
Stream size : 403 MiB (27%)
Title : RUS (D.Esarev)
Language : Russian

Audio #2
ID : 3
Format : MPEG Audio
Format version : Version 1
Format profile : Layer 3
Mode : Joint stereo
Codec ID : A_MPEG/L3
Codec ID/Hint : MP3
Duration : 2h 5mn
Bit rate mode : Constant
Bit rate : 256 Kbps
Channel(s) : 2 channels
Sampling rate : 48.0 KHz
Compression mode : Lossy
Stream size : 231 MiB (16%)
Title : ENG
Language : English

Text #1
ID : 4
Format : UTF-8
Codec ID : S_TEXT/UTF8
Codec ID/Info : UTF-8 Plain Text
Title : RUS
Language : Russian

Text #2
ID : 5
Format : UTF-8
Codec ID : S_TEXT/UTF8
Codec ID/Info : UTF-8 Plain Text
Title : ENG
Language : English

Menu
00:00:00.000 : en:00:00:00.000
00:08:34.931 : en:00:08:34.931
00:21:25.534 : en:00:21:25.534
00:29:13.877 : en:00:29:13.877
00:39:08.513 : en:00:39:08.513
00:47:23.549 : en:00:47:23.549
00:56:42.566 : en:00:56:42.566
01:06:52.634 : en:01:06:52.634
01:15:16.554 : en:01:15:16.554
01:23:46.605 : en:01:23:46.605
01:36:24.112 : en:01:36:24.112
01:52:12.726 : en:01:52:12.726
02:05:52.712 : en:02:05:52.712
скриншот   скриншот   скриншот   скриншот   скриншот   скриншот  
Торент перезалит!Добавлена русская дорожка! piratbit.pw



Скачать Сквозь снег через торрент http://6.firepic.org/6/images/2014-03/21/pkn3vkbts32q.jpg Скачать фильм Сквозь снег через торрент бесплантно в хорошем качестве Описание: Земля. Недалекое будущее. Семнадцать лет назад на планете произошла техногенная катастрофа. Там, где раньше росли леса и цвели ... 9.2 10 23
Торрент: Зарегистрирован [2014-03-29 13:20] · скачан: 187 раз
Статус: √ проверено
Размер: 1.44 GB
Как cкачать? Как скачать Сквозь снег через торрент | UTorrent

% Раздел Тема Автор DL S | L
Зарубежные сериалы [ 24.45 GB ] Сквозь снег / Snowpiercer / Сезон: 2 / Серии: 1-10 из 10 [2021 WEBRip 720p] MVO [NewStudio] bober100 Скачать
1 | 0
Зарубежные сериалы [ 81.71 GB ] Сквозь снег / Snowpiercer / Сезон: 1 / Серии: 1-10 из 10 [2020 UHD WEB-DL 2160p ] DUB [Пифагор / Netflix] +MVO [LostFilm] bober100 Скачать
1 | 0
Зарубежные сериалы [ 7.91 GB ] Сквозь снег / Snowpiercer / Сезон: 2 / Серии: 1-10 из 10 [2021 WEB-DLRip] - [Пифагор / Netflix] Twi7ter Скачать
110 | 79
Зарубежные сериалы [ 33.77 GB ] Сквозь снег / Snowpiercer / Сезон: 2 / Серии: 1-10 из 10 [2021 WEB-DL 1080p] killermax2013 Скачать
4 | 1
Зарубежные сериалы [ 7.43 GB ] Сквозь снег / Snowpiercer / Сезон: 2 / Серии 1-10 из 10 [2021 WEB-DLRip-AVC] MVO [LostFilm] GEKADOL Скачать
8 | 0
Зарубежные сериалы [ 8.93 GB ] Сквозь снег / Snowpiercer / Сезон: 2 / Серии: 1-10 из 10 [2021 WEB-DLRip] DUB [Пифагор / Netflix] bober100 Скачать
3 | 0
Фильмы 2013 [DVDrip, WEB-DLRip, HDrip] [ 3.26 GB ] Сквозь снег / Snowpiercer [2013 BDRip-AVC] MVO bober100 Скачать
2 | 0


Последний раз редактировалось: killermax2013 (2014-03-29 13:29), всего редактировалось 8 раз(а)

28-11-2019 20:33  

Отключить всю рекламу на сайте

21-03-2014 11:53 Сквозь снег Скачать торрент  

Антон Долин рекомендовал этот фильм !!! Жаль пока нет перевода!!!piratbit.pw



26-03-2014 19:35 Сквозь снег Скачать торрент  

На сайте колобка, прописано что уже озвучено:
Перевод: [Колобок]
Озвучивание: закадровое двухголосое [den904] & [DeadSno]..........только пока не могу найти где оно есть такоеpiratbit.pw



26-03-2014 20:05 Сквозь снег Скачать торрент  

Gavalera писал(а):

На сайте колобка, прописано что уже озвучено:
Перевод: [Колобок]
Озвучивание: закадровое двухголосое [den904] & [DeadSno]..........только пока не могу найти где оно есть такое

в гугле набери Snowpiercer den904, вторая ссылка
если твой браузер говорит ,что сайт заблокирован, то качай tor browser, там анонимные ip, и блоки не работаютpiratbit.pw



26-03-2014 21:14 Сквозь снег Скачать торрент  

Спс давно жду этот фильм в качествеpiratbit.pw



30-03-2014 19:43 Сквозь снег Скачать торрент  

Фильм то как? Заладили про свои перевод.piratbit.pw



    Дорогой пользователь! Огромная просьба, поблагодарите релизера, оцените раздачу и оставьте свои комментарий, если Вы скачали Сквозь снег через торрент бесплатно! Внесите свою лепту в развитие PiratBit!
    Комментировать посты могут только пользователи прошедшие не сложную регистрацию
    Показать сообщения:    

    Сквозь снег через торрент
    Скачать бесплатно Сквозь снег
    Сквозь снег скачать торрент
    Сквозь снег смотреть онлайн
    Cкачать фильм Сквозь снег бесплатно
    Сквозь снег скачать торрент в хорошем качестве
    Сквозь снег смотреть онлайн бесплатно в хорошем качестве


    Вы не можете начинать темы
    Вы не можете отвечать на сообщения
    Вы не можете редактировать свои сообщения
    Вы не можете удалять свои сообщения
    Вы не можете голосовать в опросах
    Вы не можете прикреплять файлы к сообщениям
    Вы можете скачивать файлы